<?xml version="1.0" standalone="no"?>
<!DOCTYPE svg PUBLIC "-//W3C//DTD SVG 1.1//EN" "http://www.w3.org/Graphics/SVG/1.1/DTD/svg11.dtd">
<svg xmlns="http://www.w3.org/2000/svg">
<defs >
<font id="Asap" horiz-adv-x="536" ><font-face
    font-family="Asap"
    units-per-em="1000"
    panose-1="0 0 0 0 0 0 0 0 0 0"
    ascent="934"
    descent="-212"
    alphabetic="0" />
<glyph unicode=" " horiz-adv-x="240" />
<glyph unicode="!" horiz-adv-x="294" d="M142 222Q111 222 101 230T91 254V670Q91 702 151 702H194Q254 702 254 674Q241 569 229 464T204 254Q202 238 193 230T153 222H142ZM131 -2Q71 -2 71 30V122Q71 154 131 154H163Q223 154 223 122V30Q223 -2 163 -2H131Z" />
<glyph unicode="&quot;" horiz-adv-x="320" d="M76 464Q46 464 42 494L20 670Q15 702 80 702H90Q155 702 150 670L128 494Q124 464 94 464H76ZM226 464Q196 464 192 494L170 670Q165 702 230 702H240Q305 702 300 670L278 494Q274 464 244 464H226Z" />
<glyph unicode="#" horiz-adv-x="534" d="M98 -2Q52 -2 52 21Q52 24 54 35T62 79T82 183H39Q9 183 9 233V243Q9 293 39 293H102L123 403H75Q45 403 45 453V463Q45 513 75 513H143L169 655Q172 671 186 678T225 686H238Q283 686 283 664L256 513H350L376 655Q379
671 393 678T432 686H445Q490 686 490 664L463 513H496Q526 513 526 463V453Q526 403 496 403H443L422 293H464Q494 293 494 243V233Q494 183 464 183H402L373 29Q370 13 357 6T318 -2H305Q259 -2 259 21Q259 24 261 35T269 79T289 183H195L166 29Q163 13 150 6T111
-2H98ZM215 293H309L330 403H236L215 293Z" />
<glyph unicode="$" horiz-adv-x="500" d="M254 -7Q189 -7 142 4T65 31Q43 43 32 56T21 80Q21 96 32 116T58 153T83 169Q88 169 95 166T112 158Q142 142 175 133T239 123Q283 123 309 138T336 196Q336 223 320 239T278 268T220 292Q178 309 135 337T64 407T35 503Q35
566 65 612T148 683T273 708Q325 708 365 698T427 672Q439 664 445 655T452 638Q452 625 444 604T422 567T397 551Q392 551 382 554T357 562Q340 567 315 571T252 576Q221 576 202 560T183 517Q183 494 198 478T240 448T296 422Q338 404 381 376T453 307T482 207Q482
107 426 50T254 -7ZM260 -81Q234 -81 234 -56V743Q234 768 260 768H265Q291 768 291 743V-56Q291 -81 265 -81H260Z" />
<glyph unicode="%" horiz-adv-x="765" d="M168 -2Q147 -2 147 11Q147 16 152 26L509 674Q517 688 527 695T553 702H597Q618 702 618 688Q618 686 617 683T613 674L256 26Q249 13 239 6T212 -2H168ZM576 -8Q541 -8 507 5T449 54T426 160Q426 230 449 266T506 315T576
328Q611 328 645 315T703 266T726 160Q726 91 703 55T646 5T576 -8ZM576 74Q596 74 606 87T619 121T623 160Q623 180 620 198T606 229T576 242Q557 242 547 230T532 199T528 160Q528 141 532 121T546 88T576 74ZM189 372Q154 372 120 385T62 434T39 540Q39 610
62 646T119 695T189 708Q224 708 258 695T316 646T339 540Q339 471 316 435T259 385T189 372ZM189 454Q209 454 219 467T232 501T236 540Q236 560 233 578T219 609T189 622Q170 622 160 610T145 579T141 540Q141 521 145 501T159 468T189 454Z" />
<glyph unicode="&amp;" horiz-adv-x="624" d="M249 -8Q199 -8 158 6T86 48T40 115T23 204Q23 245 35 280T74 341T139 383V387Q96 405 71 443T46 533Q46 587 71 626T142 686T251 708Q274 708 299 706T343 695T361 666Q361 642 356 624T343 595T326 584Q322 584
308 587T277 591Q250 591 232 581T205 552T196 509Q196 484 208 466T243 437T299 426H393L406 521Q411 553 460 553H491Q541 553 541 521V426H590Q620 426 620 376V359Q620 309 590 309H541V152Q541 130 549 120T577 109Q584 109 592 111T604 113Q614 113 621 97T631
63T635 41Q635 18 618 8T578 -5T539 -8Q503 -8 476 2T430 32Q388 11 348 2T249 -8ZM272 109Q309 109 350 120T449 164L412 69Q393 101 393 130V309H290Q227 309 200 283T173 206Q173 175 185 154T220 121T272 109Z" />
<glyph unicode="&apos;" horiz-adv-x="192" d="M87 464Q57 464 53 494L31 670Q26 702 91 702H101Q166 702 161 670L139 494Q135 464 105 464H87Z" />
<glyph unicode="(" horiz-adv-x="301" d="M228 -208Q213 -208 201 -192Q153 -122 120 -45T69 116T51 287Q51 374 68 458T118 620T201 767Q213 783 228 783Q238 783 251 777T275 760T285 737Q285 733 284 728T280 717Q219 603 194 502T168 287Q168 175 192 73T280
-142Q283 -147 284 -152T285 -162Q285 -173 275 -184T252 -201T228 -208Z" />
<glyph unicode=")" horiz-adv-x="301" d="M70 -208Q60 -208 47 -202T23 -184T13 -162Q13 -157 14 -152T18 -142Q79 -28 104 73T130 287Q130 400 106 502T18 717Q15 722 14 727T13 737Q13 749 23 759T46 776T70 783Q85 783 97 767Q146 698 179 620T229 458T247
287Q247 200 230 116T180 -45T97 -192Q85 -208 70 -208Z" />
<glyph unicode="*" horiz-adv-x="373" d="M105 411Q95 411 83 421T71 440Q71 450 80 460L136 539L61 563Q39 570 39 586Q39 597 45 610T67 623Q70 623 73 623T81 621L158 596V678Q158 708 188 708Q218 708 218 678V596L293 621Q297 623 300 623T306 623Q316 623
325 614T335 586Q335 570 313 563L237 539L294 460Q302 451 302 440Q302 431 291 421T269 411Q257 411 246 426L187 509L128 426Q117 411 105 411Z" />
<glyph unicode="+" horiz-adv-x="560" d="M272 0Q222 0 222 30V182H70Q40 182 40 232V239Q40 289 70 289H222V443Q222 473 272 473H286Q336 473 336 443V289H490Q520 289 520 239V232Q520 182 490 182H336V30Q336 0 286 0H272Z" />
<glyph unicode="," horiz-adv-x="198" d="M33 -125Q20 -125 4 -120T-12 -103Q-12 -96 -10 -88T-3 -70Q6 -46 19 -5T32 110Q32 130 46 142T92 154H111Q143 154 157 142T171 110Q171 68 156 27T119 -49T73 -104T33 -125Z" />
<glyph unicode="-" horiz-adv-x="320" d="M58 212Q28 212 28 262V269Q28 319 58 319H262Q292 319 292 269V262Q292 212 262 212H58Z" />
<glyph unicode="." horiz-adv-x="198" d="M83 -2Q23 -2 23 30V122Q23 154 83 154H115Q175 154 175 122V30Q175 -2 115 -2H83Z" />
<glyph unicode="/" horiz-adv-x="422" d="M49 -79Q23 -79 12 -75T0 -63Q0 -61 2 -55T8 -41L297 677Q303 691 318 696T356 702H369Q397 702 409 698T422 686Q422 683 421 679T415 664L125 -54Q119 -70 105 -74T67 -79H49Z" />
<glyph unicode="0" horiz-adv-x="535" d="M268 -8Q194 -8 141 34T60 157T31 350Q31 463 59 543T141 665T268 708Q342 708 395 666T476 543T505 350Q505 238 477 158T395 35T268 -8ZM268 109Q296 109 315 136T345 217T355 350Q355 430 345 483T316 564T268 591Q240
591 221 564T191 484T181 350Q181 271 191 217T220 136T268 109Z" />
<glyph unicode="1" horiz-adv-x="535" d="M84 0Q54 0 54 50V67Q54 117 84 117H217V566L81 546Q68 546 61 561T52 596T49 630Q49 653 75 658L324 704Q336 704 350 697T365 680V117H462Q492 117 492 67V50Q492 0 462 0H84Z" />
<glyph unicode="2" horiz-adv-x="535" d="M63 0Q56 0 50 16T39 53T35 88Q35 99 38 103L291 413Q302 427 310 442T324 474T329 509Q329 550 303 570T236 590Q204 590 181 580T143 558T119 547Q104 547 91 559T70 587T62 616Q62 638 79 655T126 684T190 702T261
708Q367 708 423 653T479 512Q479 493 476 475T468 440T455 407T438 377T418 349L230 117H461Q491 117 491 67V50Q491 0 461 0H63Z" />
<glyph unicode="3" horiz-adv-x="535" d="M253 -8Q225 -8 188 -4T117 9T59 35T36 74Q36 84 43 102T62 135T85 150Q94 150 112 140T160 120T230 109Q260 109 282 120T316 153T329 206Q329 256 302 282T212 308H184Q154 308 154 358V376Q154 426 184 426H203Q236
426 259 436T294 465T306 509Q306 534 297 552T270 580T225 590Q187 590 165 583T129 567T107 559Q97 559 86 572T66 604T57 635Q57 654 73 667T116 690T179 703T251 708Q345 708 400 661T456 533Q456 481 431 443T363 387V383Q403 368 428 342T466 280T479 204Q479
154 463 115T416 49T345 7T253 -8Z" />
<glyph unicode="4" horiz-adv-x="535" d="M362 -2Q302 -2 302 30V142H40Q32 142 23 159T9 199T3 235Q3 242 5 246L302 683Q311 696 326 699T363 702H390Q450 702 450 670V259H488Q518 259 518 209V192Q518 142 488 142H450V30Q450 -2 390 -2H362ZM152 259H302V413Q302
436 305 463T313 506L309 507L152 259Z" />
<glyph unicode="5" horiz-adv-x="535" d="M234 -8Q178 -8 134 1T64 27T38 64Q38 73 46 92T68 127T92 143Q98 143 116 135T163 118T233 109Q266 109 290 121T327 156T340 212Q340 265 312 294T215 323H106Q84 323 77 332T69 363L88 660Q90 681 99 690T130 700H425Q455
700 455 650V623Q455 583 425 583H223L213 440H239Q296 440 342 429T421 393T472 324T490 216Q490 153 468 110T408 41T325 4T234 -8Z" />
<glyph unicode="6" horiz-adv-x="535" d="M269 -8Q227 -8 185 6T109 50T54 131T33 253Q33 349 57 420T121 540T204 622T289 672T357 697T387 704Q404 704 415 688T431 651T437 621Q437 611 435 607T424 600Q351 578 292 528T207 403Q236 419 260 423T307 428Q335
428 368 418T433 383T484 318T504 216Q504 155 484 113T429 44T353 5T269 -8ZM270 109Q294 109 313 122T343 158T355 212Q355 243 345 265T314 299T264 311Q244 311 224 305T185 287Q184 276 184 265T184 241Q184 192 195 163T227 122T270 109Z" />
<glyph unicode="7" horiz-adv-x="535" d="M144 -2Q85 -2 85 17Q85 21 86 25T91 36L339 583H78Q48 583 48 633V650Q48 700 78 700H474Q480 700 487 684T499 647T504 610Q504 603 502 597L239 18Q234 6 219 2T181 -2H144Z" />
<glyph unicode="8" horiz-adv-x="535" d="M271 -8Q186 -8 133 21T54 98T29 201Q29 248 43 283T80 341T130 375Q98 397 77 430T56 519Q56 568 80 611T153 681T276 708Q341 708 387 684T458 621T483 534Q483 471 459 438T396 385Q427 371 452 347T491 285T506 192Q506
158 493 123T453 58T380 10T271 -8ZM269 109Q298 109 317 123T346 158T356 200Q356 230 346 250T319 283T280 307T233 326Q208 307 193 280T178 210Q178 165 202 137T269 109ZM285 432Q312 450 325 473T339 524Q339 556 319 573T271 591Q244 591 223 574T202 524Q202
499 213 482T243 454T285 432Z" />
<glyph unicode="9" horiz-adv-x="535" d="M147 -5Q130 -5 119 11T103 48T97 78Q97 89 99 93T110 99Q184 119 243 170T327 296Q298 280 274 276T227 271Q199 271 166 281T101 316T50 381T30 483Q30 544 50 586T105 655T181 694T265 707Q307 707 349 693T425 649T480
568T501 446Q501 350 477 279T413 159T330 77T245 27T178 2T147 -5ZM270 388Q290 388 310 395T349 412Q350 423 350 434T350 458Q350 508 339 536T308 577T264 590Q241 590 222 577T191 541T179 487Q179 457 189 435T220 400T270 388Z" />
<glyph unicode=":" horiz-adv-x="198" d="M83 369Q23 369 23 401V493Q23 525 83 525H115Q175 525 175 493V401Q175 369 115 369H83ZM83 -2Q23 -2 23 30V122Q23 154 83 154H115Q175 154 175 122V30Q175 -2 115 -2H83Z" />
<glyph unicode=";" horiz-adv-x="198" d="M83 369Q23 369 23 401V493Q23 525 83 525H115Q175 525 175 493V401Q175 369 115 369H83ZM33 -125Q20 -125 4 -120T-12 -103Q-12 -96 -10 -88T-3 -70Q6 -46 19 -5T32 110Q32 130 46 142T92 154H111Q143 154 157 142T171
110Q171 68 156 27T119 -49T73 -104T33 -125Z" />
<glyph unicode="&lt;" horiz-adv-x="560" d="M504 10Q519 10 519 52V68Q519 91 513 106T489 129L196 245L488 361Q505 368 511 383T518 422V438Q518 479 503 479Q500 479 497 479T488 476L69 297Q41 284 41 255V236Q41 207 69 194L489 14Q497 10 504 10Z" />
<glyph unicode="=" horiz-adv-x="560" d="M70 267Q40 267 40 317V324Q40 374 70 374H490Q520 374 520 324V317Q520 267 490 267H70ZM70 87Q40 87 40 137V144Q40 194 70 194H490Q520 194 520 144V137Q520 87 490 87H70Z" />
<glyph unicode="&gt;" horiz-adv-x="560" d="M55 10Q40 10 40 52V68Q40 91 47 106T70 129L363 245L71 361Q55 368 48 383T41 422V438Q41 479 56 479Q59 479 63 479T71 476L490 297Q518 284 518 255V236Q518 207 490 194L70 14Q62 10 55 10Z" />
<glyph unicode="?" horiz-adv-x="445" d="M167 222Q141 222 130 228T118 251Q118 295 139 331T186 399Q218 436 245 465T273 520Q273 546 255 561T199 576Q170 576 148 569T110 553T87 545Q73 545 59 561T34 597T24 627Q24 649 42 664T88 689T150 703T212 708Q279
708 327 687T402 625T429 530Q429 490 415 460T380 406T335 362Q304 334 277 309T243 249Q240 233 228 228T190 222H167ZM162 -2Q102 -2 102 30V122Q102 154 162 154H194Q254 154 254 122V30Q254 -2 194 -2H162Z" />
<glyph unicode="@" horiz-adv-x="974" d="M420 -123Q323 -123 250 -77T135 50T94 240Q94 339 128 424T224 572T367 672T544 708Q645 708 719 668T835 554T877 383Q877 315 859 256T810 153T736 83T644 58Q605 58 579 71T540 105T526 145V177L545 161Q537 120 502
89T417 58Q387 58 362 69T319 104T292 161T282 239Q282 320 305 380T371 474T467 508Q503 508 529 492T569 463Q574 484 583 493T621 503H633Q659 503 669 496T680 477Q680 476 678 455T672 402T665 332T657 262T651 205T649 177Q649 165 652 157T664 145T684 141Q710
141 733 160T775 212T803 290T813 383Q813 465 780 525T686 620T544 654Q463 654 393 623T270 534T188 402T158 240Q158 148 191 79T283 -30T420 -69Q469 -69 498 -62T544 -47T574 -40Q588 -40 588 -73Q588 -88 570 -97T523 -112T467 -120T420 -123ZM464 159Q478
159 489 165T511 183T529 207Q531 237 533 267T540 327T550 387Q540 397 527 403T496 410Q468 410 448 392T418 337T407 247Q407 204 421 182T464 159Z" />
<glyph unicode="A" horiz-adv-x="613" d="M61 -2Q0 -2 0 20Q0 24 1 28T4 38L224 681Q232 702 281 702H333Q383 702 390 681L610 38Q613 28 613 20Q613 -2 563 -2H519Q497 -2 482 2T463 19L423 141H187L147 19Q143 8 131 3T101 -2H61ZM230 273H380L323 451Q318
467 315 483T308 515H304Q301 499 298 483T289 451L230 273Z" />
<glyph unicode="B" horiz-adv-x="593" d="M116 0Q76 0 76 40V660Q76 700 116 700H314Q441 700 495 651T550 523Q550 489 536 459T497 407T442 371L443 367Q467 362 487 351T525 325T553 290T571 248T578 203Q578 106 517 53T328 0H116ZM230 131H328Q372 131 396
152T420 212Q420 251 392 270T312 290H230V131ZM230 421H299Q344 421 368 443T392 496Q392 533 370 551T301 570H230V421Z" />
<glyph unicode="C" horiz-adv-x="619" d="M374 -8Q206 -8 126 79T45 352Q45 708 379 708Q411 708 445 704T511 691T562 670Q588 655 588 638Q588 624 577 602T551 562T523 544Q517 544 501 552T454 568T376 576Q288 576 246 520T203 351Q203 239 245 181T374 123Q422
123 455 133T510 153T538 163Q554 163 567 145T589 106T597 76Q597 62 588 51T562 30Q538 17 505 9T437 -4T374 -8Z" />
<glyph unicode="D" horiz-adv-x="695" d="M116 0Q76 0 76 40V660Q76 700 116 700H330Q433 700 504 660T613 541T650 350Q650 265 629 200T567 91T467 23T330 0H116ZM231 131H330Q384 131 420 156T474 230T492 350Q492 421 474 470T420 544T330 569H231V131Z" />
<glyph unicode="E" horiz-adv-x="546" d="M117 0Q77 0 77 40V660Q77 700 117 700H468Q498 700 498 650V619Q498 569 468 569H231V424H441Q471 424 471 374V343Q471 293 441 293H231V131H469Q499 131 499 81V50Q499 0 469 0H117Z" />
<glyph unicode="F" horiz-adv-x="503" d="M136 -2Q76 -2 76 30V660Q76 700 116 700H445Q475 700 475 650V619Q475 569 445 569H230V393H438Q468 393 468 343V312Q468 262 438 262H230V30Q230 -2 170 -2H136Z" />
<glyph unicode="G" horiz-adv-x="672" d="M374 -8Q206 -8 126 79T45 352Q45 531 129 619T379 708Q412 708 449 703T519 689T572 667T593 638Q593 624 582 602T556 562T528 544Q522 544 505 552T456 568T376 576Q317 576 279 551T222 476T203 351Q203 295 213 252T245
181T299 138T374 123Q406 123 432 127T496 140L452 72V257H364Q334 257 334 307V339Q334 389 364 389H567Q607 389 607 349V71Q607 45 581 30T517 6T440 -5T374 -8Z" />
<glyph unicode="H" horiz-adv-x="733" d="M137 -2Q77 -2 77 30V670Q77 702 137 702H172Q232 702 232 670V423H502V670Q502 702 562 702H597Q657 702 657 670V30Q657 -2 597 -2H562Q502 -2 502 30V291H232V30Q232 -2 172 -2H137Z" />
<glyph unicode="I" horiz-adv-x="283" d="M124 -3Q64 -3 64 30V670Q64 703 124 703H159Q219 703 219 670V30Q219 -3 159 -3H124Z" />
<glyph unicode="J" horiz-adv-x="402" d="M124 -8Q115 -8 95 -7T53 -2T16 12T0 38Q0 47 4 69T17 110T41 131Q49 131 61 127T97 123Q142 123 161 147T181 227V670Q181 703 241 703H276Q336 703 336 670V202Q336 139 314 92T246 18T124 -8Z" />
<glyph unicode="K" horiz-adv-x="576" d="M129 -2Q69 -2 69 30V670Q69 702 129 702H164Q224 702 224 670V402L228 401L402 683Q409 694 424 698T462 702H509Q565 702 565 687Q565 678 557 666L364 370L583 34Q591 22 591 13Q591 -2 535 -2H477Q455 -2 439 2T416
17L228 321L224 320V30Q224 -2 164 -2H129Z" />
<glyph unicode="L" horiz-adv-x="484" d="M116 0Q76 0 76 40V670Q76 702 136 702H170Q230 702 230 670V131H446Q476 131 476 81V50Q476 0 446 0H116Z" />
<glyph unicode="M" horiz-adv-x="843" d="M407 167Q381 167 367 186L244 406Q238 416 233 425T222 445L218 444Q218 432 218 420T218 395V30Q218 -2 158 -2H129Q69 -2 69 30V670Q69 702 129 702H182Q204 702 220 696T245 675L411 379Q413 375 416 371T421 362Q423
367 425 371T430 379L599 675Q607 690 623 696T662 702H714Q774 702 774 670V30Q774 -2 714 -2H685Q625 -2 625 30V395Q625 408 625 420T625 444L621 445Q616 435 611 426T599 406L476 186Q462 167 436 167H407Z" />
<glyph unicode="N" horiz-adv-x="719" d="M129 -2Q69 -2 69 30V670Q69 702 129 702H172Q194 702 210 697T238 675L463 328Q474 313 482 299T499 269L503 270Q502 287 502 301T501 338V670Q501 702 561 702H590Q650 702 650 670V30Q650 -2 590 -2H552Q530 -2 514
3T486 25L256 377Q246 392 237 406T220 436L216 435Q218 418 218 404T218 367V30Q218 -2 158 -2H129Z" />
<glyph unicode="O" horiz-adv-x="731" d="M366 -8Q212 -8 129 84T45 350Q45 523 128 615T366 708Q521 708 603 616T686 350Q686 177 604 85T366 -8ZM366 123Q446 123 487 181T528 350Q528 460 487 518T366 576Q286 576 245 518T203 350Q203 240 244 182T366 123Z" />
<glyph unicode="P" horiz-adv-x="570" d="M129 -2Q69 -2 69 30V660Q69 700 109 700H319Q352 700 393 693T471 663T533 597T557 481Q557 423 539 384T493 321T433 284T373 267T329 262H223V30Q223 -2 163 -2H129ZM223 394H312Q326 394 341 397T370 410T391 437T399
481Q399 517 385 536T351 562T312 569H223V394Z" />
<glyph unicode="Q" horiz-adv-x="731" d="M641 -146Q639 -146 635 -145T620 -140T583 -125T514 -97T399 -52T227 16Q139 51 92 135T45 350Q45 523 128 615T366 708Q521 708 603 616T686 350Q686 232 646 151T529 31V27L682 -28Q696 -33 696 -44Q696 -50 692 -66T681
-101T663 -132T641 -146ZM366 119Q446 119 487 178T528 350Q528 460 487 518T366 576Q286 576 245 518T203 350Q203 238 244 179T366 119Z" />
<glyph unicode="R" horiz-adv-x="610" d="M129 -2Q69 -2 69 30V660Q69 700 109 700H304Q434 700 493 651T553 512Q553 454 521 414T436 353V349Q455 342 475 316T508 257L596 37Q601 24 601 18Q601 -2 541 -2H500Q478 -2 463 2T442 19L363 214Q348 244 330 259T262
274H223V30Q223 -2 163 -2H129ZM223 407H318Q339 407 356 418T384 449T395 493Q395 528 373 548T311 569H223V407Z" />
<glyph unicode="S" horiz-adv-x="500" d="M257 -8Q181 -8 129 7T50 42Q22 61 22 80Q22 96 33 116T59 153T84 169Q89 169 95 166T112 157Q132 147 161 135T231 123Q253 123 274 128T310 149T325 193Q325 223 302 241T244 273T171 305Q145 317 121 333T78 373T47
428T36 506Q36 578 71 622T160 687T273 708Q309 708 339 703T392 690T431 670Q453 654 453 638Q453 625 445 604T423 567T398 551Q393 551 385 555T362 564Q349 569 331 572T287 576Q248 576 228 567T201 545T194 520Q194 493 209 476T248 446T301 422Q332 409
364 394T423 355T466 297T483 211Q483 150 464 108T411 41T338 4T257 -8Z" />
<glyph unicode="T" horiz-adv-x="549" d="M257 -2Q197 -2 197 30V569H38Q8 569 8 619V650Q8 700 38 700H511Q541 700 541 650V619Q541 569 511 569H352V30Q352 -2 292 -2H257Z" />
<glyph unicode="U" horiz-adv-x="712" d="M356 -8Q219 -8 143 55T66 234V670Q66 702 126 702H160Q220 702 220 670V244Q220 209 237 182T285 139T356 123Q397 123 427 138T475 181T493 244V670Q493 702 553 702H586Q646 702 646 670V234Q646 119 570 56T356 -8Z" />
<glyph unicode="V" horiz-adv-x="617" d="M283 -2Q261 -2 246 2T227 19L11 662Q10 667 9 671T7 680Q7 702 68 702H103Q125 702 141 696T162 673L286 276Q294 252 300 226T308 185H312Q314 200 320 226T334 276L462 673Q467 689 483 695T521 702H550Q610 702 610
680Q610 673 607 662L391 19Q387 7 372 3T335 -2H283Z" />
<glyph unicode="W" horiz-adv-x="910" d="M225 -2Q201 -2 187 4T169 24L12 661Q11 666 11 669T10 676Q10 702 72 702H98Q127 702 144 695T165 671L240 349Q246 323 251 290T260 222T266 158H270Q274 189 280 224T292 293T305 350L387 681Q390 693 404 697T442
702H480Q504 702 518 698T535 681L614 349Q621 317 627 281T639 213T645 158H649Q652 183 657 216T669 285T683 351L760 671Q764 687 781 694T827 702H838Q900 702 900 676Q900 673 900 670T898 661L737 24Q733 10 717 4T680 -2H607Q586 -2 570 4T551 24L477 337Q476
344 470 380T456 463H452Q446 426 440 390T430 337L354 25Q350 10 334 4T297 -2H225Z" />
<glyph unicode="X" horiz-adv-x="611" d="M71 -2Q38 -2 23 3T8 17Q8 26 18 42L224 365L41 658Q31 675 31 683Q31 691 46 696T95 702H136Q158 702 173 698T196 683L310 497L430 683Q438 696 453 699T491 702H530Q562 702 577 697T593 683Q593 679 591 673T583 658L394
363L594 42Q603 27 603 17Q603 8 588 3T540 -2H501Q479 -2 464 2T441 17L308 232L170 17Q161 4 146 1T109 -2H71Z" />
<glyph unicode="Y" horiz-adv-x="559" d="M263 -2Q203 -2 203 30V336L4 657Q-6 674 -6 682Q-6 691 9 696T58 702H101Q123 702 138 698T161 683L283 469L406 683Q413 694 428 698T466 702H502Q565 702 565 682Q565 678 563 672T556 657L357 333V30Q357 -2 297 -2H263Z" />
<glyph unicode="Z" horiz-adv-x="616" d="M66 0Q58 0 49 16T33 54T27 89Q27 95 29 99L364 569H86Q56 569 56 619V650Q56 700 86 700H543Q551 700 559 683T574 643T580 608Q580 600 575 594L245 131H550Q580 131 580 81V50Q580 0 550 0H66Z" />
<glyph unicode="[" horiz-adv-x="291" d="M105 -138Q65 -138 65 -98V728Q65 768 105 768H231Q261 768 261 728V713Q261 673 231 673H180V-43H231Q261 -43 261 -83V-98Q261 -138 231 -138H105Z" />
<glyph unicode="\" horiz-adv-x="422" d="M355 -79Q332 -79 318 -75T297 -54L7 664Q3 675 2 679T0 686Q0 694 12 698T53 702H66Q89 702 104 697T125 677L414 -41Q417 -48 419 -54T422 -63Q422 -70 411 -74T373 -79H355Z" />
<glyph unicode="]" horiz-adv-x="291" d="M61 -138Q31 -138 31 -98V-83Q31 -43 61 -43H112V673H61Q31 673 31 713V728Q31 768 61 768H187Q227 768 227 728V-98Q227 -138 187 -138H61Z" />
<glyph unicode="^" horiz-adv-x="450" d="M67 318Q35 318 35 333Q35 338 39 348L168 656Q174 671 184 678T210 686H241Q256 686 266 679T283 656L412 348Q416 338 416 333Q416 318 384 318H363Q324 318 311 348L225 555L139 348Q126 318 88 318H67Z" />
<glyph unicode="_" horiz-adv-x="535" d="M10 -138Q-20 -138 -20 -88V-81Q-20 -31 10 -31H525Q555 -31 555 -81V-88Q555 -138 525 -138H10Z" />
<glyph unicode="`" horiz-adv-x="191" d="M150 572Q128 572 110 578T76 602L19 665Q10 675 5 684T0 701Q0 711 12 714T53 718Q84 718 100 716T124 706T138 687L178 615Q184 604 187 598T191 587Q191 580 184 576T150 572Z" />
<glyph unicode="a" horiz-adv-x="545" d="M190 -8Q109 -8 76 34T42 138Q42 169 51 201T90 262T176 307T329 324V357Q329 386 311 400T251 414Q215 414 189 406T146 390T123 382Q113 382 101 397T80 432T71 462Q71 479 95 495T163 521T262 531Q341 531 388 510T456
451T477 364V176Q477 124 480 97T486 56T489 31Q489 22 476 16T443 6T405 1T377 -1Q361 -1 354 10T343 38T337 68Q334 62 317 44T268 9T190 -8ZM239 109Q268 109 292 127T329 172V227Q293 227 267 222T224 208T198 185T189 153Q189 134 201 122T239 109Z" />
<glyph unicode="b" horiz-adv-x="569" d="M340 -8Q294 -8 259 13T206 67Q202 46 192 24Q185 8 173 3T138 -2H126Q66 -2 66 30V722Q66 754 126 754H154Q214 754 214 722V500Q230 511 255 521T316 531Q417 531 472 458T527 262Q527 175 503 115T437 23T340 -8ZM296
113Q337 113 357 151T377 262Q377 337 354 375T284 414Q261 414 244 408T214 395V172Q228 149 248 131T296 113Z" />
<glyph unicode="c" horiz-adv-x="485" d="M294 -8Q166 -8 104 58T42 258Q42 325 57 376T103 461T183 513T299 531Q335 531 373 524T438 501T465 462Q465 453 456 435T434 401T412 385Q409 385 405 387T394 392Q381 399 360 406T307 414Q247 414 221 377T194 262Q194
185 219 147T301 109Q336 109 360 117T399 132Q405 134 409 136T417 138Q428 138 440 123T460 90T469 62Q469 41 447 28T394 6T335 -5T294 -8Z" />
<glyph unicode="d" horiz-adv-x="565" d="M229 -8Q175 -8 133 23T67 114T42 262Q42 384 97 457T253 531Q288 531 313 521T355 500V722Q355 754 415 754H443Q503 754 503 722V176Q503 124 506 97T512 56T515 31Q515 22 502 16T469 6T431 1T403 -1Q387 -1 380 10T369
38T363 67Q346 35 311 14T229 -8ZM273 113Q302 113 322 131T355 172V395Q343 402 326 408T285 414Q238 414 215 376T192 262Q192 189 212 151T273 113Z" />
<glyph unicode="e" horiz-adv-x="539" d="M303 -8Q167 -8 105 64T42 258Q42 357 73 417T159 504T285 531Q364 531 411 496T479 402T501 273Q501 265 491 251T469 225T450 214H195Q200 154 230 132T310 109Q342 109 366 117T407 132T431 140Q442 140 454 125T474
92T483 64Q483 45 464 32T415 9T355 -4T303 -8ZM195 313H357Q357 357 340 385T285 414Q254 414 229 393T195 313Z" />
<glyph unicode="f" horiz-adv-x="325" d="M139 -2Q79 -2 79 30V406H61Q31 406 31 456V473Q31 523 61 523H79V598Q79 640 88 670T116 721T162 750T225 760Q241 760 264 758T306 745T325 711Q325 707 322 690T311 656T294 639Q289 639 280 641T263 643Q250 643 242
639T231 625T227 600V523H277Q307 523 307 473V456Q307 406 277 406H227V30Q227 -2 167 -2H139Z" />
<glyph unicode="g" horiz-adv-x="546" d="M262 -212Q182 -212 129 -197T50 -150T24 -74Q24 -35 47 -5T115 42L116 46Q95 57 84 76T73 121Q73 149 89 172T133 211Q96 231 74 265T52 353Q52 418 81 457T159 513T267 531Q287 531 306 529T344 523H505Q535 523 535
473V456Q535 409 511 409Q505 409 488 412T463 418L461 414Q470 404 476 387T482 353Q482 293 455 256T382 201T278 183Q232 183 220 175T208 151Q208 134 230 126T289 114T365 103Q404 96 439 81T497 37T520 -42Q520 -93 488 -131T398 -191T262 -212ZM273 -95Q325
-95 350 -82T376 -46Q376 -34 368 -26T342 -13T295 -3T222 4Q196 -5 182 -20T168 -50Q168 -70 193 -82T273 -95ZM267 290Q298 290 320 305T342 357Q342 392 320 408T267 424Q236 424 214 408T192 357Q192 321 214 306T267 290Z" />
<glyph unicode="h" horiz-adv-x="565" d="M126 -2Q66 -2 66 30V722Q66 754 126 754H154Q214 754 214 722V463Q237 491 273 511T355 531Q393 531 421 522T468 492T496 442T506 369V30Q506 -2 446 -2H418Q358 -2 358 30V347Q358 376 343 392T294 409Q279 409 266
404T243 389T226 370T214 351V30Q214 -2 154 -2H126Z" />
<glyph unicode="i" horiz-adv-x="265" d="M119 -2Q59 -2 59 30V493Q59 525 119 525H147Q207 525 207 493V30Q207 -2 147 -2H119ZM133 574Q94 574 77 582T59 606V684Q59 700 76 708T133 716Q172 716 189 708T207 684V606Q207 590 190 582T133 574Z" />
<glyph unicode="j" horiz-adv-x="276" d="M72 -212Q33 -212 10 -207T-22 -191T-32 -160Q-32 -148 -28 -132T-15 -104T4 -91Q9 -91 17 -93T34 -95Q54 -95 62 -85T70 -52V493Q70 525 130 525H158Q218 525 218 493V-50Q218 -91 207 -121T176 -172T130 -202T72 -212ZM144
574Q105 574 88 582T70 606V684Q70 700 87 708T144 716Q183 716 200 708T218 684V606Q218 590 201 582T144 574Z" />
<glyph unicode="k" horiz-adv-x="521" d="M126 -2Q66 -2 66 30V722Q66 754 126 754H154Q214 754 214 722V326L218 325L339 506Q348 519 363 522T400 525H437Q493 525 493 510Q493 502 484 490L312 244L314 341L508 34Q516 21 516 13Q516 -2 459 -2H417Q395 -2
380 2T357 17L218 247L214 246V30Q214 -2 154 -2H126Z" />
<glyph unicode="l" horiz-adv-x="297" d="M209 -8Q174 -8 147 1T101 31T73 81T63 154V722Q63 754 123 754H151Q211 754 211 722V152Q211 130 219 120T247 109Q254 109 262 111T274 113Q284 113 291 97T301 63T305 41Q305 18 288 8T248 -5T209 -8Z" />
<glyph unicode="m" horiz-adv-x="848" d="M122 -2Q62 -2 62 30V347Q62 397 59 424T53 464T50 488Q50 497 63 503T96 513T134 518T162 520Q178 520 185 509T196 483T202 455Q224 484 262 507T350 531Q385 531 410 523T454 498T482 455Q505 484 545 507T636 531Q674
531 701 522T746 492T773 442T782 369V30Q782 -2 722 -2H694Q634 -2 634 30V347Q634 376 621 392T575 409Q553 409 537 399T511 375T496 350T488 337V418Q492 405 494 392T496 366V30Q496 -2 436 -2H408Q348 -2 348 30V347Q348 376 335 392T289 409Q274 409 261
404T239 389T222 370T210 351V30Q210 -2 150 -2H122Z" />
<glyph unicode="n" horiz-adv-x="557" d="M122 -2Q62 -2 62 30V347Q62 397 59 424T53 464T50 488Q50 497 63 503T96 513T134 518T162 520Q178 520 185 509T196 483T202 455Q224 484 263 507T351 531Q426 531 462 492T498 369V30Q498 -2 438 -2H410Q350 -2 350
30V347Q350 376 337 392T290 409Q259 409 239 389T210 351V30Q210 -2 150 -2H122Z" />
<glyph unicode="o" horiz-adv-x="569" d="M285 -8Q166 -8 104 62T42 262Q42 393 104 462T285 531Q404 531 465 462T527 262Q527 132 466 62T285 -8ZM285 109Q333 109 355 148T377 262Q377 337 355 375T285 414Q237 414 215 376T192 262Q192 187 214 148T285 109Z" />
<glyph unicode="p" horiz-adv-x="573" d="M130 -206Q70 -206 70 -174V347Q70 397 67 424T61 464T58 488Q58 497 71 503T104 513T142 518T170 520Q186 520 193 509T204 483T210 456Q227 488 262 509T344 531Q398 531 440 500T507 409T531 261Q531 139 476 66T320
-8Q285 -8 260 2T218 23V-174Q218 -206 158 -206H130ZM288 109Q335 109 358 147T381 261Q381 334 361 372T300 410Q272 410 252 392T218 351V128Q230 121 247 115T288 109Z" />
<glyph unicode="q" horiz-adv-x="566" d="M420 -206Q360 -206 360 -174V23Q344 12 319 2T258 -8Q155 -8 99 65T42 261Q42 348 67 408T135 500T234 531Q281 531 316 510T368 456Q370 467 373 478T378 499Q382 516 397 520T436 525H448Q508 525 508 493V-174Q508
-206 448 -206H420ZM290 109Q313 109 330 115T360 128V351Q347 374 327 392T278 410Q235 410 214 372T192 261Q192 186 216 148T290 109Z" />
<glyph unicode="r" horiz-adv-x="366" d="M122 -2Q62 -2 62 30V347Q62 397 59 424T53 464T50 488Q50 497 63 503T96 513T134 518T162 520Q178 520 185 509T196 483T202 455Q218 484 243 507T311 531Q348 531 358 516T368 477Q368 468 365 448T354 410T337 393Q327
393 316 397T290 401Q270 401 254 393T227 373T210 351V30Q210 -2 150 -2H122Z" />
<glyph unicode="s" horiz-adv-x="413" d="M194 -8Q157 -8 119 0T54 23T28 60Q28 73 37 91T58 123T81 137Q89 137 102 130T136 116T182 109Q243 109 243 151Q243 174 220 186T162 213Q138 224 110 240T61 286T40 367Q40 419 62 455T126 511T222 531Q251 531 286
526T346 507T372 473Q372 462 365 443T349 409T329 394Q321 394 299 404T240 415Q215 415 201 407T187 378Q187 353 210 342T270 316Q295 307 322 291T370 245T390 163Q390 112 367 74T301 14T194 -8Z" />
<glyph unicode="t" horiz-adv-x="342" d="M223 -8Q188 -8 161 1T115 31T87 81T77 154V406H61Q31 406 31 456V473Q31 523 61 523H77L90 618Q95 650 144 650H175Q225 650 225 618V523H274Q304 523 304 473V456Q304 406 274 406H225V152Q225 130 233 120T261 109Q268
109 276 111T288 113Q298 113 305 97T315 63T319 41Q319 18 302 8T262 -5T223 -8Z" />
<glyph unicode="u" horiz-adv-x="557" d="M206 -8Q131 -8 95 31T59 154V493Q59 525 119 525H147Q207 525 207 493V176Q207 147 220 131T267 114Q298 114 318 134T347 172V493Q347 525 407 525H435Q495 525 495 493V176Q495 124 498 97T504 56T507 31Q507 22 494
16T461 6T423 1T395 -1Q379 -1 372 10T361 38T355 68Q333 40 294 16T206 -8Z" />
<glyph unicode="v" horiz-adv-x="485" d="M227 -2Q205 -2 191 2T171 19L12 485Q11 490 10 494T8 503Q8 525 69 525H102Q124 525 139 521T158 504L208 346Q222 303 231 262T245 188H249Q253 219 262 259T286 346L336 504Q340 516 355 520T392 525H417Q477 525 477
503Q477 496 474 485L315 19Q311 7 296 3T259 -2H227Z" />
<glyph unicode="w" horiz-adv-x="747" d="M201 -2Q176 -2 163 3T146 19L20 484Q19 489 19 492T18 499Q18 511 33 518T80 525Q121 525 138 520T159 504L218 258Q225 232 228 211T233 175H237Q238 182 242 204T255 261L314 504Q317 515 331 520T369 525H393Q414
525 430 520T448 504L508 256Q516 225 519 204T524 171H526Q529 191 533 213T543 259L603 504Q605 515 620 520T662 525Q724 525 724 499Q724 496 724 493T722 484L604 19Q602 9 586 4T549 -2H500Q476 -2 462 3T445 19L389 239Q383 263 380 284T375 323H371Q370
307 367 286T358 238L305 19Q303 9 287 4T250 -2H201Z" />
<glyph unicode="x" horiz-adv-x="485" d="M68 -2Q36 -2 21 3T5 16Q5 24 16 41L167 265L25 481Q14 498 14 507Q14 515 29 520T77 525H109Q131 525 146 523T170 506L231 407Q235 401 238 395T246 383Q251 390 255 396T263 409L325 506Q333 520 348 522T386 525H415Q478
525 478 507Q478 499 467 482L321 266L469 42Q480 25 480 16Q480 8 465 3T417 -2H385Q363 -2 348 1T324 17L255 127Q252 132 249 137T242 148Q239 143 236 138T229 127L159 17Q151 4 136 1T98 -2H68Z" />
<glyph unicode="y" horiz-adv-x="481" d="M172 -206Q112 -206 112 -185Q112 -181 113 -177T116 -167L199 54V-56L14 485Q13 490 12 494T10 503Q10 525 71 525H103Q125 525 140 521T159 504L218 319Q223 302 231 266T246 198H250Q257 230 265 266T278 319L337 504Q341
516 356 520T393 525H417Q477 525 477 503Q477 496 474 485L245 -185Q241 -197 226 -201T189 -206H172Z" />
<glyph unicode="z" horiz-adv-x="489" d="M56 0Q50 0 43 13T32 45T27 76Q27 86 30 90L259 406H73Q43 406 43 456V473Q43 523 73 523H427Q433 523 439 510T451 478T456 446Q456 436 453 431L225 117H430Q460 117 460 67V50Q460 0 430 0H56Z" />
<glyph unicode="{" horiz-adv-x="274" d="M193 -138Q164 -138 142 -123T107 -82T94 -22V146Q94 195 84 221T47 259Q33 267 26 278T18 309V321Q18 341 25 352T47 371Q73 382 83 408T94 484V652Q94 686 106 712T141 753T193 768H232Q262 768 262 728V714Q262 674
236 674H238Q222 674 216 666T209 638V468Q209 431 201 401T178 350T141 315Q163 303 178 281T201 229T209 162V-8Q209 -26 214 -35T233 -44H234Q262 -45 262 -84V-98Q262 -138 232 -138H193Z" />
<glyph unicode="|" horiz-adv-x="250" d="M118 -138Q68 -138 68 -108V738Q68 768 118 768H133Q183 768 183 738V-108Q183 -138 133 -138H118Z" />
<glyph unicode="}" horiz-adv-x="274" d="M49 -138Q19 -138 19 -98V-84Q19 -44 47 -44H48Q61 -44 66 -35T72 -8V162Q72 199 80 229T103 281T140 315Q118 328 103 349T80 401T72 468V638Q72 658 67 666T45 674H44Q19 674 19 714V728Q19 768 49 768H88Q117 768 139
753T174 712T187 652V484Q187 435 197 409T234 371Q248 363 255 352T263 321V309Q263 290 256 279T234 259Q208 248 198 222T187 146V-22Q187 -56 175 -82T140 -123T88 -138H49Z" />
<glyph unicode="~" horiz-adv-x="560" d="M102 208Q95 208 81 214T66 231Q66 244 71 259Q82 290 112 314T188 339Q226 339 257 329T320 309T385 299Q407 299 419 309T440 330T457 341Q465 341 479 334T494 317Q494 310 493 302T488 287Q475 256 448 234T380 211Q337
211 304 221T244 241T188 251Q163 251 147 241T120 219T102 208Z" />
<glyph unicode="&#xa0;" horiz-adv-x="240" />
<glyph unicode="&#xa1;" horiz-adv-x="294" d="M104 -180Q44 -180 44 -152Q44 -146 47 -115T56 -36T69 66T82 173T94 268Q96 284 105 292T145 300H156Q187 300 197 292T207 268V-148Q207 -180 147 -180H104ZM135 369Q75 369 75 401V493Q75 525 135 525H167Q227
525 227 493V401Q227 369 167 369H135Z" />
<glyph unicode="&#xa2;" horiz-adv-x="470" d="M294 -81Q268 -81 268 -56V562Q268 587 294 587H299Q325 587 325 562V-56Q325 -81 299 -81H294ZM277 -8Q149 -8 87 58T25 258Q25 325 40 376T86 461T166 513T282 531Q318 531 356 524T421 501T448 462Q448 453 439
435T417 401T395 385Q392 385 388 387T377 392Q364 399 343 406T290 414Q230 414 204 377T177 262Q177 185 202 147T284 109Q319 109 343 118T382 132Q388 134 392 136T400 138Q411 138 423 123T443 90T452 62Q452 41 430 28T377 6T318 -5T277 -8Z" />
<glyph unicode="&#xa3;" horiz-adv-x="530" d="M95 0Q55 0 55 40V59Q55 74 66 85T93 107T119 134T131 175V311H98Q68 311 68 361V378Q68 428 98 428H131V502Q131 606 189 657T361 708Q370 708 387 707T424 702T457 689T471 663Q471 645 465 628T449 600T431 588Q427
588 410 592T367 596Q322 596 299 575T276 507V428H384Q414 428 414 378V361Q414 311 384 311H276V251Q276 220 272 195T258 150T235 117H458Q488 117 488 67V50Q488 0 458 0H95Z" />
<glyph unicode="&#xa4;" horiz-adv-x="550" d="M123 72Q111 72 98 84L68 114Q56 126 56 139Q56 152 68 164L90 186Q77 209 70 235T63 289Q63 348 92 395L65 422Q53 434 53 447Q53 460 65 472L95 502Q108 514 120 514Q133 514 145 502L173 474Q196 486 221 493T274
500Q302 500 328 493T377 473L406 502Q418 514 431 514Q444 514 456 502L486 472Q498 460 498 447Q498 435 486 422L457 393Q471 370 478 344T485 289Q485 261 478 236T459 188L483 164Q495 152 495 139Q495 126 483 114L453 84Q441 72 428 72Q415 72 403 84L380
107Q357 93 330 86T275 78Q246 78 219 85T169 105L148 84Q136 72 123 72ZM274 192Q301 192 323 205T358 240T371 289Q371 316 358 338T323 373T274 386Q247 386 225 373T190 338T177 289Q177 262 190 240T225 205T274 192Z" />
<glyph unicode="&#xa5;" horiz-adv-x="600" d="M91 332Q61 332 61 362V376Q61 406 91 406H267L300 386L333 406H508Q538 406 538 376V362Q538 331 508 331L91 332ZM91 194Q61 194 61 224V239Q61 269 91 269H508Q538 269 538 239V224Q538 194 508 194H91ZM284 -2Q224
-2 224 30V336L25 657Q15 674 15 682Q15 691 30 696T79 702H122Q144 702 159 698T182 683L304 469L427 683Q434 694 449 698T487 702H523Q586 702 586 682Q586 672 577 657L378 333V30Q378 -2 318 -2H284Z" />
<glyph unicode="&#xa6;" horiz-adv-x="250" d="M118 380Q68 380 68 412V738Q68 770 118 770H133Q183 770 183 738V412Q183 380 133 380H118ZM118 -140Q68 -140 68 -108V218Q68 250 118 250H133Q183 250 183 218V-108Q183 -140 133 -140H118Z" />
<glyph unicode="&#xa7;" horiz-adv-x="429" d="M208 -7Q196 -7 172 -5T122 3T78 22T60 56Q60 63 66 80T83 114T103 130Q111 130 132 120T188 109Q215 109 228 116T242 140Q242 156 230 165T197 182T154 199Q128 210 102 227T59 273T42 350Q42 382 51 409T79 459Q62
474 52 497T41 554Q41 602 63 636T127 689T225 708Q237 708 261 706T311 698T355 679T373 645Q373 639 367 621T350 587T330 571Q323 571 301 581T245 592Q218 592 205 585T191 561Q191 545 204 536T238 518T282 500Q309 489 334 472T375 427T391 351Q391 318 382
291T354 242Q371 226 381 204T392 147Q392 99 370 65T306 12T208 -7ZM252 292Q257 302 259 313T261 335Q261 357 250 370T221 393T181 409Q176 399 174 388T172 366Q172 345 183 331T212 309T252 292Z" />
<glyph unicode="&#xa8;" horiz-adv-x="306" d="M244 581Q211 581 197 589T182 613V677Q182 694 196 701T244 709Q277 709 291 702T306 677V613Q306 597 292 589T244 581ZM62 581Q29 581 15 589T0 613V677Q0 694 14 701T62 709Q95 709 109 702T124 677V613Q124
597 110 589T62 581Z" />
<glyph unicode="&#xa9;" horiz-adv-x="739" d="M370 -8Q296 -8 231 20T117 97T40 211T12 350Q12 424 40 489T117 603T231 680T370 708Q444 708 509 680T623 603T700 489T728 350Q728 276 700 211T623 97T509 20T370 -8ZM383 152Q289 152 244 201T199 353Q199 552
385 552Q410 552 437 547T483 534T502 513Q502 505 496 493T482 470T466 460Q463 460 454 464T428 473T384 478Q335 478 311 447T287 353Q287 290 310 258T383 225Q410 225 428 230T458 242T474 248Q483 248 490 238T502 216T507 199Q507 182 485 172T434 157T383
152ZM370 56Q431 56 484 79T577 142T641 236T664 350Q664 411 641 464T578 557T484 621T370 644Q309 644 256 621T163 558T99 464T76 350Q76 289 99 236T162 143T256 79T370 56Z" />
<glyph unicode="&#xaa;" horiz-adv-x="319" d="M113 440Q74 440 58 461T41 514Q41 534 50 555T90 590T182 605V621Q182 635 174 640T146 646Q118 646 104 640T82 633Q74 633 66 649T57 674Q57 686 84 697T155 708Q212 708 236 685T260 625V531Q260 492 263 479T266
459Q266 453 254 449T229 444T208 442Q197 442 194 454T189 477Q188 474 179 465T154 448T113 440ZM140 502Q154 502 165 509T182 529V556Q161 556 147 553T126 542T119 522Q119 514 124 508T140 502Z" />
<glyph unicode="&#xab;" horiz-adv-x="470" d="M391 46Q378 46 364 61L237 214Q221 233 221 258Q221 283 237 302L364 455Q377 469 391 469Q401 469 414 462T439 443T450 420Q450 410 441 398L331 258L441 118Q450 106 450 95Q450 85 440 74T416 54T391 46ZM192
46Q179 46 165 61L38 214Q22 233 22 258Q22 283 38 302L165 455Q178 469 192 469Q202 469 215 462T240 443T251 420Q251 410 242 398L132 258L242 118Q251 106 251 95Q251 85 241 74T217 54T192 46Z" />
<glyph unicode="&#xac;" horiz-adv-x="560" d="M465 72Q437 72 426 81T415 104V242H60Q30 242 30 292V299Q30 349 60 349H490Q530 349 530 309V104Q530 91 520 82T480 72H465Z" />
<glyph unicode="&#xad;" horiz-adv-x="320" d="M58 212Q28 212 28 262V269Q28 319 58 319H262Q292 319 292 269V262Q292 212 262 212H58Z" />
<glyph unicode="&#xae;" horiz-adv-x="739" d="M277 156Q243 156 243 174V526Q243 548 265 548H374Q447 548 480 521T513 443Q513 411 495 388T447 354V350Q458 346 469 333T488 301L537 178Q540 171 540 167Q540 156 507 156H484Q456 156 451 168L407 277Q399
294 389 302T351 310H329V174Q329 156 295 156H277ZM329 384H382Q399 384 412 398T425 432Q425 452 413 463T378 475H329V384ZM370 -8Q296 -8 231 20T117 97T40 211T12 350Q12 424 40 489T117 603T231 680T370 708Q444 708 509 680T623 603T700 489T728 350Q728
276 700 211T623 97T509 20T370 -8ZM370 56Q431 56 484 79T577 142T641 236T664 350Q664 411 641 464T578 557T484 621T370 644Q309 644 256 621T163 558T99 464T76 350Q76 289 99 236T162 143T256 79T370 56Z" />
<glyph unicode="&#xaf;" horiz-adv-x="305" d="M30 597Q0 597 0 637V652Q0 692 30 692H275Q305 692 305 652V637Q305 597 275 597H30Z" />
<glyph unicode="&#xb0;" horiz-adv-x="345" d="M172 443Q136 443 106 461T58 509T40 575Q40 612 58 642T106 690T172 708Q209 708 239 690T287 642T305 575Q305 539 287 509T239 461T172 443ZM172 505Q200 505 220 525T240 575Q240 604 220 625T172 646Q144 646
125 625T105 575Q105 546 124 526T172 505Z" />
<glyph unicode="&#xb1;" horiz-adv-x="560" d="M272 140Q222 140 222 170V312H70Q40 312 40 362V369Q40 419 70 419H222V573Q222 603 272 603H286Q336 603 336 573V419H490Q520 419 520 369V362Q520 312 490 312H336V170Q336 140 286 140H272ZM70 0Q40 0 40 50V57Q40
107 70 107H490Q520 107 520 57V50Q520 0 490 0H70Z" />
<glyph unicode="&#xb2;" horiz-adv-x="310" d="M39 350Q31 350 26 369T20 401Q20 405 22 408T27 416L170 591Q177 599 181 608T189 627T192 647Q192 671 177 683T138 695Q119 695 106 689T84 676T69 669Q56 669 46 684T36 710Q36 727 53 739T97 757T152 763Q214
763 247 731T280 649Q280 631 276 614T263 582T244 554L134 418H269Q287 418 287 389V379Q287 350 269 350H39Z" />
<glyph unicode="&#xb3;" horiz-adv-x="310" d="M147 343Q125 343 95 347T42 362T19 391Q19 397 23 408T34 427T48 436Q56 436 76 424T133 412Q151 412 164 419T184 438T191 469Q191 498 176 513T122 529H106Q88 529 88 558V569Q88 598 106 598H117Q136 598 149
604T170 621T178 647Q178 662 173 672T157 688T130 694Q96 694 83 685T61 676Q52 676 42 692T31 721Q31 736 47 745T90 759T145 764Q201 764 233 736T266 661Q266 630 252 608T211 575V573Q246 560 262 532T279 468Q279 429 263 401T216 358T147 343Z" />
<glyph unicode="&#xb4;" horiz-adv-x="191" d="M41 572Q16 572 8 576T0 587Q0 592 3 598T13 615L53 687Q60 699 67 706T91 715T138 718Q167 718 179 715T191 701Q191 693 186 684T172 665L115 602Q99 585 81 579T41 572Z" />
<glyph unicode="&#xb5;" horiz-adv-x="566" d="M125 -206Q65 -206 65 -174V493Q65 525 125 525H153Q213 525 213 493V176Q213 147 226 131T273 114Q304 114 324 134T353 172V493Q353 525 413 525H441Q501 525 501 493V176Q501 124 504 97T510 56T513 31Q513 22
500 16T467 6T429 1T401 -1Q385 -1 378 10T367 38T361 68Q339 39 301 16T221 -8Q206 -8 190 -3T162 9L183 59Q198 20 204 -18T212 -96T213 -174Q213 -206 153 -206H125Z" />
<glyph unicode="&#xb6;" horiz-adv-x="515" d="M273 -171Q243 -171 243 -141V247Q187 254 141 285T68 366T41 473Q41 541 71 592T154 671T268 700H471Q501 700 501 668V667Q501 638 471 638H445V-141Q445 -171 415 -171H413Q383 -171 383 -141V638H305V-141Q305
-171 275 -171H273Z" />
<glyph unicode="&#xb7;" horiz-adv-x="267" d="M134 289Q105 289 85 309T64 359Q64 388 84 408T134 429Q163 429 183 409T204 359Q204 330 184 310T134 289Z" />
<glyph unicode="&#xb8;" horiz-adv-x="250" d="M131 -212Q103 -212 73 -206T21 -189T0 -162Q0 -142 10 -132T28 -122Q41 -122 69 -133T129 -144Q142 -144 149 -142T160 -134T164 -121Q164 -109 154 -103T129 -93T105 -86T94 -75Q94 -72 95 -67T101 -44T119 10H183L165
-57L140 -45Q190 -45 220 -64T250 -120Q250 -150 237 -170T197 -201T131 -212Z" />
<glyph unicode="&#xb9;" horiz-adv-x="310" d="M158 349Q140 349 132 354T123 368V682L44 669Q33 669 29 688T25 719Q25 733 40 736L186 762Q192 762 200 758T209 748V368Q209 359 201 354T174 349H158Z" />
<glyph unicode="&#xba;" horiz-adv-x="337" d="M169 441Q110 441 79 475T48 575Q48 640 79 674T169 708Q228 708 258 674T289 575Q289 510 259 476T169 441ZM169 504Q209 504 209 575Q209 645 169 645Q128 645 128 575Q128 504 169 504Z" />
<glyph unicode="&#xbb;" horiz-adv-x="470" d="M278 46Q267 46 253 54T229 73T219 95Q219 106 228 118L338 258L228 398Q219 410 219 420Q219 432 230 443T255 461T278 469Q294 469 305 455L432 302Q448 283 448 258Q448 233 432 214L305 61Q293 46 278 46ZM79
46Q68 46 54 54T30 73T20 95Q20 106 29 118L139 258L29 398Q20 410 20 420Q20 432 31 443T56 461T79 469Q95 469 106 455L233 302Q249 283 249 258Q249 233 233 214L106 61Q94 46 79 46Z" />
<glyph unicode="&#xbc;" horiz-adv-x="750" d="M133 289Q115 289 107 294T98 308V622L19 609Q8 609 4 628T0 659Q0 673 15 676L161 702Q167 702 175 698T184 688V308Q184 299 176 294T149 289H133ZM635 -1Q600 -1 600 17V82H452Q445 82 440 92T431 114T427 133Q427
139 431 145L600 397Q605 405 614 406T635 408H651Q686 408 686 389V150H708Q725 150 725 121V111Q725 82 708 82H686V17Q686 -1 651 -1H635ZM508 150H601V234Q601 257 604 275T612 303L609 304L508 150ZM157 0Q136 0 136 11Q136 14 138 18T142 26L504 679Q516
700 544 700H560Q584 700 584 689Q584 686 582 683T578 674L219 26Q211 12 202 6T178 0H157Z" />
<glyph unicode="&#xbd;" horiz-adv-x="750" d="M133 289Q115 289 107 294T98 308V622L19 609Q8 609 4 628T0 659Q0 673 15 676L161 702Q167 702 175 698T184 688V308Q184 299 176 294T149 289H133ZM460 0Q452 0 447 19T441 51Q441 55 443 58T448 66L591 241Q598
249 602 258T610 277T613 297Q613 321 598 333T559 345Q540 345 527 339T505 326T490 319Q477 319 467 334T457 360Q457 377 474 389T519 407T573 413Q635 413 668 381T701 299Q701 281 697 264T684 232T665 204L555 68H690Q708 68 708 39V29Q708 0 690 0H460ZM133
0Q112 0 112 11Q112 14 114 18T118 26L480 679Q492 700 520 700H536Q560 700 560 689Q560 686 558 683T554 674L195 26Q187 12 178 6T154 0H133Z" />
<glyph unicode="&#xbe;" horiz-adv-x="750" d="M137 283Q115 283 85 287T32 302T9 331Q9 337 13 348T24 367T38 376Q46 376 66 364T123 352Q141 352 154 359T174 378T181 409Q181 438 166 453T112 469H96Q78 469 78 498V509Q78 538 96 538H107Q126 538 139 544T160
561T168 587Q168 602 163 612T147 628T120 634Q86 634 73 625T51 616Q42 616 32 632T21 661Q21 676 37 685T80 699T135 704Q191 704 223 676T256 601Q256 570 242 548T201 515V513Q236 500 252 472T269 408Q269 369 253 341T206 298T137 283ZM635 -1Q600 -1 600
17V82H452Q445 82 440 92T431 114T427 133Q427 139 431 145L600 397Q605 405 614 406T635 408H651Q686 408 686 389V150H708Q725 150 725 121V111Q725 82 708 82H686V17Q686 -1 651 -1H635ZM508 150H601V234Q601 257 604 275T612 303L609 304L508 150ZM187 0Q166
0 166 11Q166 14 168 18T172 26L534 679Q546 700 574 700H590Q614 700 614 689Q614 686 612 683T608 674L249 26Q241 12 232 6T208 0H187Z" />
<glyph unicode="&#xbf;" horiz-adv-x="425" d="M288 301Q314 301 325 295T337 272Q337 229 316 192T269 124Q238 87 210 58T182 3Q182 -23 200 -38T256 -53Q285 -53 307 -45T345 -30T368 -22Q382 -22 396 -38T421 -73T431 -104Q431 -126 413 -141T367 -166T305
-180T243 -185Q176 -185 128 -164T53 -102T26 -7Q26 34 40 64T75 117T120 161Q151 189 178 214T212 274Q215 290 227 295T265 301H288ZM293 525Q353 525 353 493V401Q353 369 293 369H261Q201 369 201 401V493Q201 525 261 525H293Z" />
<glyph unicode="&#xc0;" horiz-adv-x="613" d="M61 -2Q0 -2 0 20Q0 24 1 28T4 38L224 681Q232 702 281 702H333Q383 702 390 681L610 38Q613 28 613 20Q613 -2 563 -2H519Q497 -2 482 2T463 19L423 141H187L147 19Q143 8 131 3T101 -2H61ZM230 273H380L323 451Q318
467 315 483T308 515H304Q301 499 298 483T289 451L230 273ZM360 749Q335 749 321 753T290 768L204 825Q188 836 181 843T174 857Q174 868 192 871T245 875Q280 875 297 869T331 845L385 785Q393 777 395 772T398 762Q398 749 360 749Z" />
<glyph unicode="&#xc1;" horiz-adv-x="613" d="M61 -2Q0 -2 0 20Q0 24 1 28T4 38L224 681Q232 702 281 702H333Q383 702 390 681L610 38Q613 28 613 20Q613 -2 563 -2H519Q497 -2 482 2T463 19L423 141H187L147 19Q143 8 131 3T101 -2H61ZM230 273H380L323 451Q318
467 315 483T308 515H304Q301 499 298 483T289 451L230 273ZM253 749Q215 749 215 762Q215 766 218 771T228 785L282 845Q298 862 316 868T368 875Q403 875 421 872T439 857Q439 851 432 843T409 824L323 768Q307 757 293 753T253 749Z" />
<glyph unicode="&#xc2;" horiz-adv-x="613" d="M61 -2Q0 -2 0 20Q0 24 1 28T4 38L224 681Q232 702 281 702H333Q383 702 390 681L610 38Q613 28 613 20Q613 -2 563 -2H519Q497 -2 482 2T463 19L423 141H187L147 19Q143 8 131 3T101 -2H61ZM230 273H380L323 451Q318
467 315 483T308 515H304Q301 499 298 483T289 451L230 273ZM199 734Q174 734 167 736T159 744Q159 747 162 752T180 774L236 837Q248 851 260 855T296 860H316Q339 860 351 855T377 836L432 774Q446 758 449 753T453 744Q453 739 446 737T413 734Q397 734 383
738T355 751L306 779L257 751Q244 744 230 739T199 734Z" />
<glyph unicode="&#xc3;" horiz-adv-x="613" d="M61 -2Q0 -2 0 20Q0 24 1 28T4 38L224 681Q232 702 281 702H333Q383 702 390 681L610 38Q613 28 613 20Q613 -2 563 -2H519Q497 -2 482 2T463 19L423 141H187L147 19Q143 8 131 3T101 -2H61ZM230 273H380L323 451Q318
467 315 483T308 515H304Q301 499 298 483T289 451L230 273ZM170 750Q161 750 144 759T127 778Q127 785 129 792T135 805Q146 829 170 850T238 871Q260 871 286 864T338 850T379 842Q396 842 407 850T426 865T444 873Q455 873 471 862T487 840Q487 831 479 817Q469
798 444 776T375 753Q353 753 326 760T274 775T231 782Q214 782 204 774T186 758T170 750Z" />
<glyph unicode="&#xc4;" horiz-adv-x="613" d="M61 -2Q0 -2 0 20Q0 24 1 28T4 38L224 681Q232 702 281 702H333Q383 702 390 681L610 38Q613 28 613 20Q613 -2 563 -2H519Q497 -2 482 2T463 19L423 141H187L147 19Q143 8 131 3T101 -2H61ZM230 273H380L323 451Q318
467 315 483T308 515H304Q301 499 298 483T289 451L230 273ZM400 746Q366 746 351 754T336 778V846Q336 863 351 870T400 878Q434 878 449 871T464 846V778Q464 762 449 754T400 746ZM214 746Q180 746 165 754T150 778V846Q150 863 165 870T214 878Q248 878 263
871T278 846V778Q278 762 263 754T214 746Z" />
<glyph unicode="&#xc5;" horiz-adv-x="613" d="M61 -2Q0 -2 0 20Q0 24 1 28T4 38L224 681Q232 702 281 702H333Q383 702 390 681L610 38Q613 28 613 20Q613 -2 563 -2H519Q497 -2 482 2T463 19L423 141H187L147 19Q143 8 131 3T101 -2H61ZM230 273H380L323 451Q318
467 315 483T308 515H304Q301 499 298 483T289 451L230 273ZM306 718Q264 718 236 746T207 817Q207 860 235 888T306 917Q349 917 377 889T406 817Q406 775 378 747T306 718ZM306 782Q321 782 331 792T341 816Q341 831 331 841T306 851Q292 851 282 841T272 816Q272
802 282 792T306 782Z" />
<glyph unicode="&#xc6;" horiz-adv-x="915" d="M62 -2Q31 -2 16 4T1 20Q1 30 5 38L326 673Q340 700 370 700H834Q864 700 864 650V619Q864 569 834 569H517L545 424H807Q837 424 837 374V343Q837 293 807 293H571L602 131H835Q865 131 865 81V50Q865 0 835 0H504Q488
0 480 7T469 30L448 141H205L145 19Q140 9 129 4T99 -2H62ZM270 273H424L391 454V537H387L359 455L270 273Z" />
<glyph unicode="&#xc7;" horiz-adv-x="619" d="M374 -8Q206 -8 126 79T45 352Q45 708 379 708Q411 708 445 704T511 691T562 670Q588 655 588 638Q588 624 577 602T551 562T523 544Q517 544 501 552T454 568T376 576Q288 576 246 520T203 351Q203 239 245 181T374
123Q422 123 455 133T510 153T538 163Q554 163 567 145T589 106T597 76Q597 62 588 51T562 30Q538 17 505 9T437 -4T374 -8ZM326 -212Q298 -212 268 -206T216 -189T195 -162Q195 -142 205 -132T223 -122Q236 -122 264 -133T324 -144Q337 -144 344 -142T355 -134T359
-121Q359 -109 349 -103T324 -93T300 -86T289 -75Q289 -72 290 -67T297 -44T314 10H378L360 -57L335 -45Q385 -45 415 -64T445 -120Q445 -150 432 -170T392 -201T326 -212Z" />
<glyph unicode="&#xc8;" horiz-adv-x="546" d="M117 0Q77 0 77 40V660Q77 700 117 700H468Q498 700 498 650V619Q498 569 468 569H231V424H441Q471 424 471 374V343Q471 293 441 293H231V131H469Q499 131 499 81V50Q499 0 469 0H117ZM339 749Q314 749 300 753T269
768L183 825Q167 836 160 843T153 857Q153 868 171 871T224 875Q259 875 276 869T310 845L364 785Q372 777 374 772T377 762Q377 749 339 749Z" />
<glyph unicode="&#xc9;" horiz-adv-x="546" d="M117 0Q77 0 77 40V660Q77 700 117 700H468Q498 700 498 650V619Q498 569 468 569H231V424H441Q471 424 471 374V343Q471 293 441 293H231V131H469Q499 131 499 81V50Q499 0 469 0H117ZM232 749Q194 749 194 762Q194
766 197 771T207 785L261 845Q277 862 295 868T347 875Q382 875 400 872T418 857Q418 851 411 843T388 824L302 768Q286 757 272 753T232 749Z" />
<glyph unicode="&#xca;" horiz-adv-x="546" d="M117 0Q77 0 77 40V660Q77 700 117 700H468Q498 700 498 650V619Q498 569 468 569H231V424H441Q471 424 471 374V343Q471 293 441 293H231V131H469Q499 131 499 81V50Q499 0 469 0H117ZM178 734Q153 734 146 736T138
744Q138 747 141 752T159 774L215 837Q227 851 239 855T275 860H295Q318 860 330 855T356 836L411 774Q425 758 428 753T432 744Q432 739 425 737T392 734Q376 734 362 738T334 751L285 779L236 751Q223 744 209 739T178 734Z" />
<glyph unicode="&#xcb;" horiz-adv-x="546" d="M117 0Q77 0 77 40V660Q77 700 117 700H468Q498 700 498 650V619Q498 569 468 569H231V424H441Q471 424 471 374V343Q471 293 441 293H231V131H469Q499 131 499 81V50Q499 0 469 0H117ZM379 746Q345 746 330 754T315
778V846Q315 863 330 870T379 878Q413 878 428 871T443 846V778Q443 762 428 754T379 746ZM193 746Q159 746 144 754T129 778V846Q129 863 144 870T193 878Q227 878 242 871T257 846V778Q257 762 242 754T193 746Z" />
<glyph unicode="&#xcc;" horiz-adv-x="283" d="M124 -3Q64 -3 64 30V670Q64 703 124 703H159Q219 703 219 670V30Q219 -3 159 -3H124ZM195 749Q170 749 156 753T125 768L39 825Q23 836 16 843T9 857Q9 868 27 871T80 875Q115 875 132 869T166 845L220 785Q228
777 230 772T233 762Q233 749 195 749Z" />
<glyph unicode="&#xcd;" horiz-adv-x="283" d="M124 -3Q64 -3 64 30V670Q64 703 124 703H159Q219 703 219 670V30Q219 -3 159 -3H124ZM88 749Q50 749 50 762Q50 766 53 771T63 785L117 845Q133 862 151 868T203 875Q238 875 256 872T274 857Q274 851 267 843T244
824L158 768Q142 757 128 753T88 749Z" />
<glyph unicode="&#xce;" horiz-adv-x="283" d="M124 -3Q64 -3 64 30V670Q64 703 124 703H159Q219 703 219 670V30Q219 -3 159 -3H124ZM34 734Q9 734 2 736T-6 744Q-6 747 -3 752T15 774L71 837Q83 851 95 855T131 860H151Q174 860 186 855T212 836L267 774Q281
758 284 753T288 744Q288 739 281 737T248 734Q232 734 218 738T190 751L141 779L92 751Q79 744 65 739T34 734Z" />
<glyph unicode="&#xcf;" horiz-adv-x="283" d="M124 -3Q64 -3 64 30V670Q64 703 124 703H159Q219 703 219 670V30Q219 -3 159 -3H124ZM235 746Q201 746 186 754T171 778V846Q171 863 186 870T235 878Q269 878 284 871T299 846V778Q299 762 284 754T235 746ZM49
746Q15 746 0 754T-15 778V846Q-15 863 0 870T49 878Q83 878 98 871T113 846V778Q113 762 98 754T49 746Z" />
<glyph unicode="&#xd0;" horiz-adv-x="696" d="M42 291Q12 291 12 341V371Q12 421 42 421H325Q355 421 355 371V341Q355 291 325 291H42ZM116 0Q76 0 76 40V660Q76 700 116 700H330Q433 700 504 660T613 541T650 350Q650 265 629 200T567 91T467 23T330 0H116ZM231
131H330Q384 131 420 156T474 230T492 350Q492 421 474 470T420 544T330 569H231V131Z" />
<glyph unicode="&#xd1;" horiz-adv-x="719" d="M129 -2Q69 -2 69 30V670Q69 702 129 702H172Q194 702 210 697T238 675L463 328Q474 313 482 299T499 269L503 270Q502 287 502 301T501 338V670Q501 702 561 702H590Q650 702 650 670V30Q650 -2 590 -2H552Q530
-2 514 3T486 25L256 377Q246 392 237 406T220 436L216 435Q218 418 218 404T218 367V30Q218 -2 158 -2H129ZM223 750Q214 750 197 759T180 778Q180 785 182 792T188 805Q199 829 223 850T291 871Q313 871 339 864T391 850T432 842Q449 842 460 850T479 865T497
873Q508 873 524 862T540 840Q540 831 532 817Q522 798 497 776T428 753Q406 753 379 760T327 775T284 782Q267 782 257 774T239 758T223 750Z" />
<glyph unicode="&#xd2;" horiz-adv-x="731" d="M366 -8Q212 -8 129 84T45 350Q45 523 128 615T366 708Q521 708 603 616T686 350Q686 177 604 85T366 -8ZM366 123Q446 123 487 181T528 350Q528 460 487 518T366 576Q286 576 245 518T203 350Q203 240 244 182T366
123ZM419 749Q394 749 380 753T349 768L263 825Q247 836 240 843T233 857Q233 868 251 871T304 875Q339 875 356 869T390 845L444 785Q452 777 454 772T457 762Q457 749 419 749Z" />
<glyph unicode="&#xd3;" horiz-adv-x="731" d="M366 -8Q212 -8 129 84T45 350Q45 523 128 615T366 708Q521 708 603 616T686 350Q686 177 604 85T366 -8ZM366 123Q446 123 487 181T528 350Q528 460 487 518T366 576Q286 576 245 518T203 350Q203 240 244 182T366
123ZM312 749Q274 749 274 762Q274 766 277 771T287 785L341 845Q357 862 375 868T427 875Q462 875 480 872T498 857Q498 851 491 843T468 824L382 768Q366 757 352 753T312 749Z" />
<glyph unicode="&#xd4;" horiz-adv-x="731" d="M366 -8Q212 -8 129 84T45 350Q45 523 128 615T366 708Q521 708 603 616T686 350Q686 177 604 85T366 -8ZM366 123Q446 123 487 181T528 350Q528 460 487 518T366 576Q286 576 245 518T203 350Q203 240 244 182T366
123ZM258 734Q233 734 226 736T218 744Q218 747 221 752T239 774L295 837Q307 851 319 855T355 860H375Q398 860 410 855T436 836L491 774Q505 758 508 753T512 744Q512 739 505 737T472 734Q456 734 442 738T414 751L365 779L316 751Q303 744 289 739T258 734Z"
/>
<glyph unicode="&#xd5;" horiz-adv-x="731" d="M366 -8Q212 -8 129 84T45 350Q45 523 128 615T366 708Q521 708 603 616T686 350Q686 177 604 85T366 -8ZM366 123Q446 123 487 181T528 350Q528 460 487 518T366 576Q286 576 245 518T203 350Q203 240 244 182T366
123ZM229 750Q220 750 203 759T186 778Q186 785 188 792T194 805Q205 829 229 850T297 871Q319 871 345 864T397 850T438 842Q455 842 466 850T485 865T503 873Q514 873 530 862T546 840Q546 831 538 817Q528 798 503 776T434 753Q412 753 385 760T333 775T290
782Q273 782 263 774T245 758T229 750Z" />
<glyph unicode="&#xd6;" horiz-adv-x="731" d="M366 -8Q212 -8 129 84T45 350Q45 523 128 615T366 708Q521 708 603 616T686 350Q686 177 604 85T366 -8ZM366 123Q446 123 487 181T528 350Q528 460 487 518T366 576Q286 576 245 518T203 350Q203 240 244 182T366
123ZM459 746Q425 746 410 754T395 778V846Q395 863 410 870T459 878Q493 878 508 871T523 846V778Q523 762 508 754T459 746ZM273 746Q239 746 224 754T209 778V846Q209 863 224 870T273 878Q307 878 322 871T337 846V778Q337 762 322 754T273 746Z" />
<glyph unicode="&#xd7;" horiz-adv-x="560" d="M115 11Q105 11 90 23T62 51T49 77Q49 86 58 95L205 242L58 390Q49 399 49 408Q49 418 61 433T88 461T115 474Q124 474 133 465L280 318L428 465Q437 474 446 474Q456 474 471 462T499 435T512 408Q512 399 503 390L356
242L503 95Q512 86 512 77Q512 65 499 50T471 23T446 11Q437 11 428 20L280 167L133 20Q124 11 115 11Z" />
<glyph unicode="&#xd8;" horiz-adv-x="731" d="M89 0Q79 -12 67 -12Q59 -12 48 -5T28 14T19 34Q19 42 29 54L612 712Q623 724 634 724Q643 724 654 717T673 698T682 678Q682 669 672 658L89 0ZM366 -8Q212 -8 129 84T45 350Q45 523 128 615T366 708Q521 708 603
616T686 350Q686 177 604 85T366 -8ZM366 123Q446 123 487 181T528 350Q528 460 487 518T366 576Q286 576 245 518T203 350Q203 240 244 182T366 123Z" />
<glyph unicode="&#xd9;" horiz-adv-x="712" d="M356 -8Q219 -8 143 55T66 234V670Q66 702 126 702H160Q220 702 220 670V244Q220 209 237 182T285 139T356 123Q397 123 427 138T475 181T493 244V670Q493 702 553 702H586Q646 702 646 670V234Q646 119 570 56T356
-8ZM409 749Q384 749 370 753T339 768L253 825Q237 836 230 843T223 857Q223 868 241 871T294 875Q329 875 346 869T380 845L434 785Q442 777 444 772T447 762Q447 749 409 749Z" />
<glyph unicode="&#xda;" horiz-adv-x="712" d="M356 -8Q219 -8 143 55T66 234V670Q66 702 126 702H160Q220 702 220 670V244Q220 209 237 182T285 139T356 123Q397 123 427 138T475 181T493 244V670Q493 702 553 702H586Q646 702 646 670V234Q646 119 570 56T356
-8ZM302 749Q264 749 264 762Q264 766 267 771T277 785L331 845Q347 862 365 868T417 875Q452 875 470 872T488 857Q488 851 481 843T458 824L372 768Q356 757 342 753T302 749Z" />
<glyph unicode="&#xdb;" horiz-adv-x="712" d="M356 -8Q219 -8 143 55T66 234V670Q66 702 126 702H160Q220 702 220 670V244Q220 209 237 182T285 139T356 123Q397 123 427 138T475 181T493 244V670Q493 702 553 702H586Q646 702 646 670V234Q646 119 570 56T356
-8ZM248 734Q223 734 216 736T208 744Q208 747 211 752T229 774L285 837Q297 851 309 855T345 860H365Q388 860 400 855T426 836L481 774Q495 758 498 753T502 744Q502 739 495 737T462 734Q446 734 432 738T404 751L355 779L306 751Q293 744 279 739T248 734Z"
/>
<glyph unicode="&#xdc;" horiz-adv-x="712" d="M356 -8Q219 -8 143 55T66 234V670Q66 702 126 702H160Q220 702 220 670V244Q220 209 237 182T285 139T356 123Q397 123 427 138T475 181T493 244V670Q493 702 553 702H586Q646 702 646 670V234Q646 119 570 56T356
-8ZM449 746Q415 746 400 754T385 778V846Q385 863 400 870T449 878Q483 878 498 871T513 846V778Q513 762 498 754T449 746ZM263 746Q229 746 214 754T199 778V846Q199 863 214 870T263 878Q297 878 312 871T327 846V778Q327 762 312 754T263 746Z" />
<glyph unicode="&#xdd;" horiz-adv-x="559" d="M263 -2Q203 -2 203 30V336L4 657Q-6 674 -6 682Q-6 691 9 696T58 702H101Q123 702 138 698T161 683L283 469L406 683Q413 694 428 698T466 702H502Q565 702 565 682Q565 672 556 657L357 333V30Q357 -2 297 -2H263ZM226
749Q188 749 188 762Q188 766 191 771T201 785L255 845Q271 862 289 868T341 875Q376 875 394 872T412 857Q412 851 405 843T382 824L296 768Q280 757 266 753T226 749Z" />
<glyph unicode="&#xde;" horiz-adv-x="570" d="M129 -2Q69 -2 69 30V670Q69 702 129 702H163Q223 702 223 670V593H319Q352 593 393 586T471 556T533 490T557 374Q557 316 539 277T493 214T433 177T373 160T329 155H223V30Q223 -2 163 -2H129ZM223 287H312Q326
287 341 290T370 303T391 330T399 374Q399 410 385 429T351 455T312 462H223V287Z" />
<glyph unicode="&#xdf;" horiz-adv-x="554" d="M118 -2Q58 -2 58 30V490Q58 557 87 605T169 681T287 708Q350 708 400 687T479 626T508 530Q508 481 485 444T415 387V383Q477 359 505 317T533 210Q533 150 505 103T424 28T299 0H276Q246 0 246 50V67Q246 117 276
117H290Q332 117 357 142T383 210Q383 255 356 283T278 311H276Q246 311 246 361V378Q246 428 273 428H276Q301 428 319 439T348 469T358 511Q358 526 351 543T328 571T285 583Q248 583 227 560T206 502V30Q206 -2 146 -2H118Z" />
<glyph unicode="&#xe0;" horiz-adv-x="545" d="M190 -8Q109 -8 76 34T42 138Q42 169 51 201T90 262T176 307T329 324V357Q329 386 311 400T251 414Q215 414 189 406T146 390T123 382Q113 382 101 397T80 432T71 462Q71 479 95 495T163 521T262 531Q341 531 388
510T456 451T477 364V176Q477 124 480 97T486 56T489 31Q489 22 476 16T443 6T405 1T377 -1Q361 -1 354 10T343 38T337 68Q334 62 317 44T268 9T190 -8ZM239 109Q268 109 292 127T329 172V227Q293 227 267 222T224 208T198 185T189 153Q189 134 201 122T239 109ZM288
572Q266 572 248 578T214 602L157 665Q148 675 143 684T138 701Q138 711 150 714T191 718Q222 718 238 716T262 706T276 687L316 615Q322 604 325 598T329 587Q329 580 322 576T288 572Z" />
<glyph unicode="&#xe1;" horiz-adv-x="545" d="M190 -8Q109 -8 76 34T42 138Q42 169 51 201T90 262T176 307T329 324V357Q329 386 311 400T251 414Q215 414 189 406T146 390T123 382Q113 382 101 397T80 432T71 462Q71 479 95 495T163 521T262 531Q341 531 388
510T456 451T477 364V176Q477 124 480 97T486 56T489 31Q489 22 476 16T443 6T405 1T377 -1Q361 -1 354 10T343 38T337 68Q334 62 317 44T268 9T190 -8ZM239 109Q268 109 292 127T329 172V227Q293 227 267 222T224 208T198 185T189 153Q189 134 201 122T239 109ZM236
572Q211 572 203 576T195 587Q195 592 198 598T208 615L248 687Q255 699 262 706T286 715T333 718Q362 718 374 715T386 701Q386 693 381 684T367 665L310 602Q294 585 276 579T236 572Z" />
<glyph unicode="&#xe2;" horiz-adv-x="545" d="M190 -8Q109 -8 76 34T42 138Q42 169 51 201T90 262T176 307T329 324V357Q329 386 311 400T251 414Q215 414 189 406T146 390T123 382Q113 382 101 397T80 432T71 462Q71 479 95 495T163 521T262 531Q341 531 388
510T456 451T477 364V176Q477 124 480 97T486 56T489 31Q489 22 476 16T443 6T405 1T377 -1Q361 -1 354 10T343 38T337 68Q334 62 317 44T268 9T190 -8ZM239 109Q268 109 292 127T329 172V227Q293 227 267 222T224 208T198 185T189 153Q189 134 201 122T239 109ZM176
572Q135 572 135 587Q135 592 138 598T148 615L192 692Q200 707 213 712T258 718H286Q317 718 331 712T352 692L396 615Q402 605 405 599T409 587Q409 572 368 572Q342 572 330 579T308 597L272 636L236 597Q226 586 214 579T176 572Z" />
<glyph unicode="&#xe3;" horiz-adv-x="545" d="M190 -8Q109 -8 76 34T42 138Q42 169 51 201T90 262T176 307T329 324V357Q329 386 311 400T251 414Q215 414 189 406T146 390T123 382Q113 382 101 397T80 432T71 462Q71 479 95 495T163 521T262 531Q341 531 388
510T456 451T477 364V176Q477 124 480 97T486 56T489 31Q489 22 476 16T443 6T405 1T377 -1Q361 -1 354 10T343 38T337 68Q334 62 317 44T268 9T190 -8ZM239 109Q268 109 292 127T329 172V227Q293 227 267 222T224 208T198 185T189 153Q189 134 201 122T239 109ZM139
582Q134 582 123 586T102 597T93 612Q93 623 98 635Q110 662 135 683T199 704Q224 704 248 698T294 685T331 678Q352 678 362 685T380 699T397 706Q402 706 413 701T433 687T443 671Q443 667 442 662T435 646Q426 627 402 607T331 586Q310 586 287 592T243 605T207
612Q188 612 176 605T156 590T139 582Z" />
<glyph unicode="&#xe4;" horiz-adv-x="545" d="M190 -8Q109 -8 76 34T42 138Q42 169 51 201T90 262T176 307T329 324V357Q329 386 311 400T251 414Q215 414 189 406T146 390T123 382Q113 382 101 397T80 432T71 462Q71 479 95 495T163 521T262 531Q341 531 388
510T456 451T477 364V176Q477 124 480 97T486 56T489 31Q489 22 476 16T443 6T405 1T377 -1Q361 -1 354 10T343 38T337 68Q334 62 317 44T268 9T190 -8ZM239 109Q268 109 292 127T329 172V227Q293 227 267 222T224 208T198 185T189 153Q189 134 201 122T239 109ZM364
581Q331 581 317 589T302 613V677Q302 694 316 701T364 709Q397 709 411 702T426 677V613Q426 597 412 589T364 581ZM182 581Q149 581 135 589T120 613V677Q120 694 134 701T182 709Q215 709 229 702T244 677V613Q244 597 230 589T182 581Z" />
<glyph unicode="&#xe5;" horiz-adv-x="545" d="M190 -8Q109 -8 76 34T42 138Q42 169 51 201T90 262T176 307T329 324V357Q329 386 311 400T251 414Q215 414 189 406T146 390T123 382Q113 382 101 397T80 432T71 462Q71 479 95 495T163 521T262 531Q341 531 388
510T456 451T477 364V176Q477 124 480 97T486 56T489 31Q489 22 476 16T443 6T405 1T377 -1Q361 -1 354 10T343 38T337 68Q334 62 317 44T268 9T190 -8ZM239 109Q268 109 292 127T329 172V227Q293 227 267 222T224 208T198 185T189 153Q189 134 201 122T239 109ZM272
541Q229 541 200 569T170 640Q170 683 199 711T272 740Q316 740 345 712T375 640Q375 598 346 570T272 541ZM272 605Q287 605 297 615T307 639Q307 654 297 664T272 674Q258 674 248 664T238 639Q238 625 248 615T272 605Z" />
<glyph unicode="&#xe6;" horiz-adv-x="819" d="M208 -8Q127 -8 85 34T42 138Q42 168 51 200T90 260T175 305T326 323Q330 358 341 387Q329 403 305 408T251 414Q220 414 194 406T150 390T123 382Q113 382 101 397T80 432T71 462Q71 479 95 495T163 521T262 531Q318
531 358 522T423 495Q482 531 565 531Q644 531 691 498T759 409T781 283Q781 275 772 261T751 235T732 224H477Q477 181 493 156T535 120T590 109Q622 109 646 117T687 132T711 140Q722 140 734 125T754 92T763 64Q763 45 744 32T695 9T635 -4T583 -8Q517 -8 469
10T388 60Q377 49 352 33T291 4T208 -8ZM239 109Q265 109 293 121T335 156Q326 188 323 225Q278 225 248 217T204 193T189 153Q189 134 201 122T239 109ZM475 323H637Q637 367 618 390T565 414Q548 414 530 408T496 382T475 323Z" />
<glyph unicode="&#xe7;" horiz-adv-x="485" d="M294 -8Q166 -8 104 58T42 258Q42 325 57 376T103 461T183 513T299 531Q335 531 373 524T438 501T465 462Q465 453 456 435T434 401T412 385Q409 385 405 387T394 392Q381 399 360 406T307 414Q247 414 221 377T194
262Q194 185 219 147T301 109Q336 109 360 118T399 132Q405 134 409 136T417 138Q428 138 440 123T460 90T469 62Q469 41 447 28T394 6T335 -5T294 -8ZM276 -212Q248 -212 218 -206T166 -189T145 -162Q145 -142 155 -132T173 -122Q186 -122 214 -133T274 -144Q287
-144 294 -142T305 -134T309 -121Q309 -109 299 -103T274 -93T250 -86T239 -75Q239 -72 240 -67T247 -44T264 10H328L310 -57L285 -45Q335 -45 365 -64T395 -120Q395 -150 382 -170T342 -201T276 -212Z" />
<glyph unicode="&#xe8;" horiz-adv-x="539" d="M303 -8Q167 -8 105 64T42 258Q42 357 73 417T159 504T285 531Q364 531 411 496T479 402T501 273Q501 265 491 251T469 225T450 214H195Q200 154 230 132T310 109Q342 109 366 117T407 132T431 140Q442 140 454 125T474
92T483 64Q483 45 464 32T415 9T355 -4T303 -8ZM195 313H357Q357 357 340 385T285 414Q254 414 229 393T195 313ZM295 572Q273 572 255 578T221 602L164 665Q155 675 150 684T145 701Q145 711 157 714T198 718Q229 718 245 716T269 706T283 687L323 615Q329 604
332 598T336 587Q336 580 329 576T295 572Z" />
<glyph unicode="&#xe9;" horiz-adv-x="539" d="M303 -8Q167 -8 105 64T42 258Q42 357 73 417T159 504T285 531Q364 531 411 496T479 402T501 273Q501 265 491 251T469 225T450 214H195Q200 154 230 132T310 109Q342 109 366 117T407 132T431 140Q442 140 454 125T474
92T483 64Q483 45 464 32T415 9T355 -4T303 -8ZM195 313H357Q357 357 340 385T285 414Q254 414 229 393T195 313ZM243 572Q218 572 210 576T202 587Q202 592 205 598T215 615L255 687Q262 699 269 706T293 715T340 718Q369 718 381 715T393 701Q393 693 388 684T374
665L317 602Q301 585 283 579T243 572Z" />
<glyph unicode="&#xea;" horiz-adv-x="539" d="M303 -8Q167 -8 105 64T42 258Q42 357 73 417T159 504T285 531Q364 531 411 496T479 402T501 273Q501 265 491 251T469 225T450 214H195Q200 154 230 132T310 109Q342 109 366 117T407 132T431 140Q442 140 454 125T474
92T483 64Q483 45 464 32T415 9T355 -4T303 -8ZM195 313H357Q357 357 340 385T285 414Q254 414 229 393T195 313ZM183 572Q142 572 142 587Q142 592 145 598T155 615L199 692Q207 707 220 712T265 718H293Q324 718 338 712T359 692L403 615Q409 605 412 599T416
587Q416 572 375 572Q349 572 337 579T315 597L279 636L243 597Q233 586 221 579T183 572Z" />
<glyph unicode="&#xeb;" horiz-adv-x="539" d="M303 -8Q167 -8 105 64T42 258Q42 357 73 417T159 504T285 531Q364 531 411 496T479 402T501 273Q501 265 491 251T469 225T450 214H195Q200 154 230 132T310 109Q342 109 366 117T407 132T431 140Q442 140 454 125T474
92T483 64Q483 45 464 32T415 9T355 -4T303 -8ZM195 313H357Q357 357 340 385T285 414Q254 414 229 393T195 313ZM371 581Q338 581 324 589T309 613V677Q309 694 323 701T371 709Q404 709 418 702T433 677V613Q433 597 419 589T371 581ZM189 581Q156 581 142 589T127
613V677Q127 694 141 701T189 709Q222 709 236 702T251 677V613Q251 597 237 589T189 581Z" />
<glyph unicode="&#xec;" horiz-adv-x="265" d="M119 -2Q59 -2 59 30V493Q59 525 119 525H147Q207 525 207 493V30Q207 -2 147 -2H119ZM148 572Q126 572 108 578T74 602L17 665Q8 675 3 684T-2 701Q-2 711 10 714T51 718Q82 718 98 716T122 706T136 687L176 615Q182
604 185 598T189 587Q189 580 182 576T148 572Z" />
<glyph unicode="&#xed;" horiz-adv-x="265" d="M119 -2Q59 -2 59 30V493Q59 525 119 525H147Q207 525 207 493V30Q207 -2 147 -2H119ZM96 572Q71 572 63 576T55 587Q55 592 58 598T68 615L108 687Q115 699 122 706T146 715T193 718Q222 718 234 715T246 701Q246
693 241 684T227 665L170 602Q154 585 136 579T96 572Z" />
<glyph unicode="&#xee;" horiz-adv-x="265" d="M119 -2Q59 -2 59 30V493Q59 525 119 525H147Q207 525 207 493V30Q207 -2 147 -2H119ZM36 572Q-5 572 -5 587Q-5 592 -2 598T8 615L52 692Q60 707 73 712T118 718H146Q177 718 191 712T212 692L256 615Q262 605 265
599T269 587Q269 572 228 572Q202 572 190 579T168 597L132 636L96 597Q86 586 74 579T36 572Z" />
<glyph unicode="&#xef;" horiz-adv-x="265" d="M119 -2Q59 -2 59 30V493Q59 525 119 525H147Q207 525 207 493V30Q207 -2 147 -2H119ZM224 581Q191 581 177 589T162 613V677Q162 694 176 701T224 709Q257 709 271 702T286 677V613Q286 597 272 589T224 581ZM42
581Q9 581 -5 589T-20 613V677Q-20 694 -6 701T42 709Q75 709 89 702T104 677V613Q104 597 90 589T42 581Z" />
<glyph unicode="&#xf0;" horiz-adv-x="569" d="M285 -8Q166 -8 104 62T42 262Q42 393 104 462T285 531Q308 531 329 528T369 520L352 486Q342 518 330 542T304 589Q277 585 265 584T249 582T243 581Q228 581 216 594T204 623Q204 636 225 639L268 645Q258 658
244 674T230 696Q230 706 249 708Q265 710 280 712T311 715Q334 715 349 704Q360 697 369 686T389 661Q422 666 436 667T453 669T457 670Q470 670 482 657T494 628Q494 615 473 612L427 606Q452 568 475 513T512 394T527 262Q527 132 466 62T285 -8ZM285 109Q333
109 355 148T377 262Q377 337 355 375T285 414Q237 414 215 376T192 262Q192 187 214 148T285 109Z" />
<glyph unicode="&#xf1;" horiz-adv-x="557" d="M122 -2Q62 -2 62 30V347Q62 397 59 424T53 464T50 488Q50 497 63 503T96 513T134 518T162 520Q178 520 185 509T196 483T202 455Q224 484 263 507T351 531Q426 531 462 492T498 369V30Q498 -2 438 -2H410Q350 -2
350 30V347Q350 376 337 392T290 409Q259 409 239 389T210 351V30Q210 -2 150 -2H122ZM145 582Q140 582 129 586T108 597T99 612Q99 623 104 635Q116 662 141 683T205 704Q230 704 254 698T300 685T337 678Q358 678 368 685T386 699T403 706Q408 706 419 701T439
687T449 671Q449 667 448 662T441 646Q432 627 408 607T337 586Q316 586 293 592T249 605T213 612Q194 612 182 605T162 590T145 582Z" />
<glyph unicode="&#xf2;" horiz-adv-x="569" d="M285 -8Q166 -8 104 62T42 262Q42 393 104 462T285 531Q404 531 465 462T527 262Q527 132 466 62T285 -8ZM285 109Q333 109 355 148T377 262Q377 337 355 375T285 414Q237 414 215 376T192 262Q192 187 214 148T285
109ZM300 572Q278 572 260 578T226 602L169 665Q160 675 155 684T150 701Q150 711 162 714T203 718Q234 718 250 716T274 706T288 687L328 615Q334 604 337 598T341 587Q341 580 334 576T300 572Z" />
<glyph unicode="&#xf3;" horiz-adv-x="569" d="M285 -8Q166 -8 104 62T42 262Q42 393 104 462T285 531Q404 531 465 462T527 262Q527 132 466 62T285 -8ZM285 109Q333 109 355 148T377 262Q377 337 355 375T285 414Q237 414 215 376T192 262Q192 187 214 148T285
109ZM248 572Q223 572 215 576T207 587Q207 592 210 598T220 615L260 687Q267 699 274 706T298 715T345 718Q374 718 386 715T398 701Q398 693 393 684T379 665L322 602Q306 585 288 579T248 572Z" />
<glyph unicode="&#xf4;" horiz-adv-x="569" d="M285 -8Q166 -8 104 62T42 262Q42 393 104 462T285 531Q404 531 465 462T527 262Q527 132 466 62T285 -8ZM285 109Q333 109 355 148T377 262Q377 337 355 375T285 414Q237 414 215 376T192 262Q192 187 214 148T285
109ZM188 572Q147 572 147 587Q147 592 150 598T160 615L204 692Q212 707 225 712T270 718H298Q329 718 343 712T364 692L408 615Q414 605 417 599T421 587Q421 572 380 572Q354 572 342 579T320 597L284 636L248 597Q238 586 226 579T188 572Z" />
<glyph unicode="&#xf5;" horiz-adv-x="569" d="M285 -8Q166 -8 104 62T42 262Q42 393 104 462T285 531Q404 531 465 462T527 262Q527 132 466 62T285 -8ZM285 109Q333 109 355 148T377 262Q377 337 355 375T285 414Q237 414 215 376T192 262Q192 187 214 148T285
109ZM151 582Q146 582 135 586T114 597T105 612Q105 623 110 635Q122 662 147 683T211 704Q236 704 260 698T306 685T343 678Q364 678 374 685T392 699T409 706Q414 706 425 701T445 687T455 671Q455 667 454 662T447 646Q438 627 414 607T343 586Q322 586 299
592T255 605T219 612Q200 612 188 605T168 590T151 582Z" />
<glyph unicode="&#xf6;" horiz-adv-x="569" d="M285 -8Q166 -8 104 62T42 262Q42 393 104 462T285 531Q404 531 465 462T527 262Q527 132 466 62T285 -8ZM285 109Q333 109 355 148T377 262Q377 337 355 375T285 414Q237 414 215 376T192 262Q192 187 214 148T285
109ZM376 581Q343 581 329 589T314 613V677Q314 694 328 701T376 709Q409 709 423 702T438 677V613Q438 597 424 589T376 581ZM194 581Q161 581 147 589T132 613V677Q132 694 146 701T194 709Q227 709 241 702T256 677V613Q256 597 242 589T194 581Z" />
<glyph unicode="&#xf7;" horiz-adv-x="560" d="M60 172Q30 172 30 222V229Q30 279 60 279H500Q530 279 530 229V222Q530 172 500 172H60ZM274 -2Q214 -2 214 30V101Q214 133 274 133H285Q345 133 345 101V30Q345 -2 285 -2H274ZM274 318Q214 318 214 350V421Q214
453 274 453H285Q345 453 345 421V350Q345 318 285 318H274Z" />
<glyph unicode="&#xf8;" horiz-adv-x="569" d="M87 -12Q79 -12 68 -5T48 12T39 32Q39 42 49 53L460 531Q471 544 482 544Q490 544 501 537T521 519T530 500Q530 491 520 479L108 1Q98 -12 87 -12ZM285 -8Q166 -8 104 62T42 262Q42 393 104 462T285 531Q404 531
465 462T527 262Q527 132 466 62T285 -8ZM285 109Q333 109 355 148T377 262Q377 337 355 375T285 414Q237 414 215 376T192 262Q192 187 214 148T285 109Z" />
<glyph unicode="&#xf9;" horiz-adv-x="557" d="M206 -8Q131 -8 95 31T59 154V493Q59 525 119 525H147Q207 525 207 493V176Q207 147 220 131T267 114Q298 114 318 134T347 172V493Q347 525 407 525H435Q495 525 495 493V176Q495 124 498 97T504 56T507 31Q507
22 494 16T461 6T423 1T395 -1Q379 -1 372 10T361 38T355 68Q333 40 294 16T206 -8ZM294 572Q272 572 254 578T220 602L163 665Q154 675 149 684T144 701Q144 711 156 714T197 718Q228 718 244 716T268 706T282 687L322 615Q328 604 331 598T335 587Q335 580 328
576T294 572Z" />
<glyph unicode="&#xfa;" horiz-adv-x="557" d="M206 -8Q131 -8 95 31T59 154V493Q59 525 119 525H147Q207 525 207 493V176Q207 147 220 131T267 114Q298 114 318 134T347 172V493Q347 525 407 525H435Q495 525 495 493V176Q495 124 498 97T504 56T507 31Q507
22 494 16T461 6T423 1T395 -1Q379 -1 372 10T361 38T355 68Q333 40 294 16T206 -8ZM242 572Q217 572 209 576T201 587Q201 592 204 598T214 615L254 687Q261 699 268 706T292 715T339 718Q368 718 380 715T392 701Q392 693 387 684T373 665L316 602Q300 585 282
579T242 572Z" />
<glyph unicode="&#xfb;" horiz-adv-x="557" d="M206 -8Q131 -8 95 31T59 154V493Q59 525 119 525H147Q207 525 207 493V176Q207 147 220 131T267 114Q298 114 318 134T347 172V493Q347 525 407 525H435Q495 525 495 493V176Q495 124 498 97T504 56T507 31Q507
22 494 16T461 6T423 1T395 -1Q379 -1 372 10T361 38T355 68Q333 40 294 16T206 -8ZM182 572Q141 572 141 587Q141 592 144 598T154 615L198 692Q206 707 219 712T264 718H292Q323 718 337 712T358 692L402 615Q408 605 411 599T415 587Q415 572 374 572Q348 572
336 579T314 597L278 636L242 597Q232 586 220 579T182 572Z" />
<glyph unicode="&#xfc;" horiz-adv-x="557" d="M206 -8Q131 -8 95 31T59 154V493Q59 525 119 525H147Q207 525 207 493V176Q207 147 220 131T267 114Q298 114 318 134T347 172V493Q347 525 407 525H435Q495 525 495 493V176Q495 124 498 97T504 56T507 31Q507
22 494 16T461 6T423 1T395 -1Q379 -1 372 10T361 38T355 68Q333 40 294 16T206 -8ZM370 581Q337 581 323 589T308 613V677Q308 694 322 701T370 709Q403 709 417 702T432 677V613Q432 597 418 589T370 581ZM188 581Q155 581 141 589T126 613V677Q126 694 140 701T188
709Q221 709 235 702T250 677V613Q250 597 236 589T188 581Z" />
<glyph unicode="&#xfd;" horiz-adv-x="481" d="M172 -206Q112 -206 112 -185Q112 -181 113 -177T116 -167L199 54V-56L14 485Q13 490 12 494T10 503Q10 525 71 525H103Q125 525 140 521T159 504L218 319Q223 302 231 266T246 198H250Q257 230 265 266T278 319L337
504Q341 516 356 520T393 525H417Q477 525 477 503Q477 496 474 485L245 -185Q241 -197 226 -201T189 -206H172ZM204 572Q179 572 171 576T163 587Q163 592 166 598T176 615L216 687Q223 699 230 706T254 715T301 718Q330 718 342 715T354 701Q354 693 349 684T335
665L278 602Q262 585 244 579T204 572Z" />
<glyph unicode="&#xfe;" horiz-adv-x="573" d="M130 -206Q70 -206 70 -174V722Q70 754 130 754H158Q218 754 218 722V470Q237 497 270 514T344 531Q398 531 440 500T507 409T531 261Q531 139 476 66T320 -8Q285 -8 260 2T218 23V-174Q218 -206 158 -206H130ZM288
109Q335 109 358 147T381 261Q381 334 361 372T300 410Q272 410 252 392T218 351V128Q230 121 247 115T288 109Z" />
<glyph unicode="&#xff;" horiz-adv-x="481" d="M172 -206Q112 -206 112 -185Q112 -181 113 -177T116 -167L199 54V-56L14 485Q13 490 12 494T10 503Q10 525 71 525H103Q125 525 140 521T159 504L218 319Q223 302 231 266T246 198H250Q257 230 265 266T278 319L337
504Q341 516 356 520T393 525H417Q477 525 477 503Q477 496 474 485L245 -185Q241 -197 226 -201T189 -206H172ZM332 581Q299 581 285 589T270 613V677Q270 694 284 701T332 709Q365 709 379 702T394 677V613Q394 597 380 589T332 581ZM150 581Q117 581 103 589T88
613V677Q88 694 102 701T150 709Q183 709 197 702T212 677V613Q212 597 198 589T150 581Z" />
<glyph unicode="&#x2013;" horiz-adv-x="500" d="M68 212Q38 212 38 262V269Q38 319 68 319H432Q462 319 462 269V262Q462 212 432 212H68Z" />
<glyph unicode="&#x2014;" horiz-adv-x="1000" d="M78 212Q48 212 48 262V269Q48 319 78 319H922Q952 319 952 269V262Q952 212 922 212H78Z" />
<glyph unicode="&#x2018;" horiz-adv-x="212" d="M93 478Q62 478 48 490T33 522Q33 564 48 605T85 681T131 736T171 757Q185 757 200 752T216 735Q216 729 215 723T210 709Q200 685 186 643T172 522Q172 502 158 490T112 478H93Z" />
<glyph unicode="&#x2019;" horiz-adv-x="212" d="M54 478Q41 478 25 483T9 500Q9 506 10 513T16 529Q26 553 39 595T53 713Q53 733 67 745T113 757H132Q164 757 178 745T192 713Q192 671 177 630T140 554T94 499T54 478Z" />
<glyph unicode="&#x201a;" horiz-adv-x="198" d="M23 -125Q10 -125 -6 -120T-22 -103Q-22 -97 -21 -90T-15 -74Q-5 -50 8 -8T22 110Q22 130 36 142T82 154H101Q133 154 147 142T161 110Q161 68 146 27T109 -49T63 -104T23 -125Z" />
<glyph unicode="&#x201c;" horiz-adv-x="350" d="M263 478Q232 478 218 490T203 522Q203 564 218 605T255 681T301 736T341 757Q355 757 370 752T386 735Q386 729 385 723T380 709Q370 685 356 643T342 522Q342 502 328 490T282 478H263ZM86 478Q55 478 41 490T26
522Q26 564 41 605T78 681T124 736T164 757Q178 757 193 752T209 735Q209 729 208 723T203 709Q193 685 179 643T165 522Q165 502 151 490T105 478H86Z" />
<glyph unicode="&#x201d;" horiz-adv-x="350" d="M204 478Q191 478 175 483T159 500Q159 506 160 513T166 529Q176 553 189 595T203 713Q203 733 217 745T263 757H282Q314 757 328 745T342 713Q342 671 327 630T290 554T244 499T204 478ZM26 478Q13 478 -3 483T-19
500Q-19 506 -18 513T-12 529Q-2 553 11 595T25 713Q25 733 39 745T85 757H104Q136 757 150 745T164 713Q164 671 149 630T112 554T66 499T26 478Z" />
<glyph unicode="&#x201e;" horiz-adv-x="350" d="M188 -125Q175 -125 159 -120T143 -103Q143 -97 144 -90T150 -74Q160 -50 173 -8T187 110Q187 130 201 142T247 154H266Q298 154 312 142T326 110Q326 68 311 27T274 -49T228 -104T188 -125ZM10 -125Q-3 -125 -19
-120T-35 -103Q-35 -97 -34 -90T-28 -74Q-18 -50 -5 -8T9 110Q9 130 23 142T69 154H88Q120 154 134 142T148 110Q148 68 133 27T96 -49T50 -104T10 -125Z" />
<glyph unicode="&#x2022;" horiz-adv-x="336" d="M168 194Q132 194 102 212T54 260T36 326Q36 363 54 393T102 441T168 459Q205 459 235 441T283 393T301 326Q301 290 283 260T235 212T168 194Z" />
<glyph unicode="&#x2039;" horiz-adv-x="300" d="M197 46Q183 46 170 61L43 214Q27 233 27 258Q27 283 43 302L170 455Q182 469 197 469Q207 469 220 462T245 443T256 420Q256 410 247 398L137 258L247 118Q256 106 256 95Q256 85 246 74T222 54T197 46Z" />
<glyph unicode="&#x203a;" horiz-adv-x="300" d="M103 46Q92 46 78 54T54 73T44 95Q44 106 53 118L163 258L53 398Q44 410 44 420Q44 432 55 443T80 461T103 469Q119 469 130 455L257 302Q273 283 273 258Q273 233 257 214L130 61Q118 46 103 46Z" />
</font>
</defs>
</svg>
