<?xml version="1.0" standalone="no"?>
<!DOCTYPE svg PUBLIC "-//W3C//DTD SVG 1.1//EN" "http://www.w3.org/Graphics/SVG/1.1/DTD/svg11.dtd">
<svg xmlns="http://www.w3.org/2000/svg">
<defs >
<font id="Asap" horiz-adv-x="536" ><font-face
    font-family="Asap SemiBold"
    units-per-em="1000"
    panose-1="0 0 0 0 0 0 0 0 0 0"
    ascent="934"
    descent="-212"
    alphabetic="0" />
<glyph unicode=" " horiz-adv-x="240" />
<glyph unicode="!" horiz-adv-x="294" d="M142 215Q116 215 107 222T98 244V673Q98 702 151 702H186Q239 702 239 676Q228 568 218 460T197 244Q195 230 187 223T153 215H142ZM134 -2Q81 -2 81 27V110Q81 138 134 138H161Q214 138 214 110V27Q214 -2 161 -2H134Z" />
<glyph unicode="&quot;" horiz-adv-x="320" d="M83 467Q56 467 53 491L31 673Q26 702 84 702H94Q151 702 147 673L125 491Q122 467 95 467H83ZM225 467Q198 467 195 491L173 673Q169 702 226 702H236Q294 702 289 673L267 491Q264 467 237 467H225Z" />
<glyph unicode="#" horiz-adv-x="534" d="M101 -2Q61 -2 61 19Q61 22 63 34T72 81T92 187H37Q11 187 11 231V243Q11 286 37 286H110L133 409H73Q47 409 47 452V464Q47 507 73 507H150L178 658Q181 672 192 679T230 686H240Q279 686 279 666L250 507H352L380 658Q382
672 394 679T432 686H442Q481 686 481 666L453 507H498Q524 507 524 464V452Q524 409 498 409H434L412 286H466Q492 286 492 243V231Q492 187 466 187H393L364 26Q361 12 350 5T313 -2H303Q263 -2 263 19Q263 22 265 34T274 81T294 187H192L162 26Q159 12 148 5T111
-2H101ZM210 286H312L335 409H233L210 286Z" />
<glyph unicode="$" horiz-adv-x="500" d="M251 -7Q194 -7 151 2T78 26Q53 38 40 51T26 76Q26 89 35 107T57 138T79 152Q82 152 88 149T105 141Q132 127 168 116T245 105Q292 107 321 125T351 191Q351 223 333 243T286 276T223 303Q174 324 132 352T65 420T39 510Q39
569 67 613T147 681T270 706Q314 706 354 697T419 672Q431 665 438 657T445 640Q445 629 437 611T418 579T398 565Q393 565 384 569T361 577Q344 583 318 589T254 595Q214 595 190 575T165 520Q165 494 182 476T227 443T287 416Q338 394 381 365T450 296T476 201Q476
105 420 50T251 -7ZM259 -78Q233 -78 233 -55V742Q233 765 259 765H264Q290 765 290 742V-55Q290 -78 264 -78H259Z" />
<glyph unicode="%" horiz-adv-x="765" d="M174 -4Q152 -4 152 8Q152 13 156 21L519 678Q526 691 536 697T562 703H592Q614 703 614 691Q614 689 613 686T610 678L247 21Q241 9 231 3T204 -4H174ZM573 -7Q540 -7 507 6T451 54T428 159Q428 228 450 263T505 312T573
325Q607 325 640 312T696 264T719 159Q719 90 696 55T640 6T573 -7ZM573 66Q597 66 609 80T625 116T629 159Q629 180 626 201T610 236T573 250Q549 250 537 236T521 201T517 159Q517 138 521 117T537 81T573 66ZM192 375Q158 375 125 388T69 436T46 541Q46 610
68 645T124 694T192 707Q225 707 258 694T314 646T337 541Q337 472 315 437T259 388T192 375ZM192 448Q216 448 228 462T244 498T248 541Q248 562 244 583T229 618T192 632Q168 632 156 618T140 583T136 541Q136 520 140 499T156 463T192 448Z" />
<glyph unicode="&amp;" horiz-adv-x="624" d="M257 -7Q212 -7 172 6T100 45T50 111T32 204Q32 249 47 285T89 346T152 384V388Q109 406 82 444T55 535Q55 590 80 628T152 686T259 707Q280 707 303 705T344 695T361 669Q361 652 357 636T346 609T330 598Q325 598
311 602T277 606Q241 606 221 593T192 559T183 516Q183 491 195 469T233 434T296 420H399L411 518Q415 547 458 547H481Q524 547 524 518V420H586Q612 420 612 377V361Q612 318 586 318H524V148Q524 118 535 106T567 94Q579 94 586 96T599 98Q608 98 614 84T623
55T627 35Q627 16 611 7T575 -5T539 -7Q507 -7 480 2T432 34Q396 15 356 4T257 -7ZM275 94Q315 94 355 107T441 146L414 72Q399 101 399 131V318H289Q225 318 193 292T161 205Q161 166 177 142T219 106T275 94Z" />
<glyph unicode="&apos;" horiz-adv-x="192" d="M90 467Q63 467 60 491L38 673Q34 702 91 702H101Q158 702 154 673L132 491Q129 467 102 467H90Z" />
<glyph unicode="(" horiz-adv-x="301" d="M239 -209Q226 -209 214 -195Q164 -132 128 -55T72 108T52 287Q52 379 71 465T127 629T214 769Q225 783 239 783Q248 783 259 778T278 764T287 744Q287 740 286 735T280 724Q217 622 187 515T157 287Q157 166 186 59T280
-150Q284 -155 285 -160T286 -170Q286 -179 279 -188T260 -203T239 -209Z" />
<glyph unicode=")" horiz-adv-x="301" d="M60 -209Q51 -209 40 -204T20 -189T12 -170Q12 -165 13 -161T17 -152Q81 -50 111 57T142 287Q142 408 113 515T19 724Q16 729 15 734T13 744Q13 753 21 762T40 777T60 783Q73 783 85 769Q136 706 172 629T227 466T247
287Q247 194 228 108T172 -55T85 -195Q74 -209 60 -209Z" />
<glyph unicode="*" horiz-adv-x="373" d="M103 412Q94 412 84 421T73 438Q73 447 81 456L142 541L59 568Q40 574 40 588Q40 599 45 610T64 621Q67 621 70 621T77 619L161 592V682Q161 708 188 708Q214 708 214 682V592L297 619Q301 621 303 621T309 621Q318 621
326 613T334 589Q334 574 315 568L231 541L293 456Q300 448 300 438Q300 430 290 421T271 412Q260 412 251 425L187 514L123 425Q114 412 103 412Z" />
<glyph unicode="+" horiz-adv-x="560" d="M274 -1Q231 -1 231 26V187H70Q43 187 43 230V237Q43 280 70 280H231V443Q231 470 274 470H285Q328 470 328 443V280H490Q517 280 517 237V230Q517 187 490 187H328V26Q328 -1 285 -1H274Z" />
<glyph unicode="," horiz-adv-x="198" d="M36 -122Q25 -122 11 -118T-3 -102Q-3 -96 -1 -89T6 -72Q18 -45 29 -5T41 98Q41 116 54 127T94 138H109Q137 138 149 128T162 100Q162 57 149 17T115 -54T73 -104T36 -122Z" />
<glyph unicode="-" horiz-adv-x="320" d="M60 218Q34 218 34 261V269Q34 312 60 312H260Q286 312 286 269V261Q286 218 260 218H60Z" />
<glyph unicode="." horiz-adv-x="198" d="M86 -2Q33 -2 33 27V110Q33 138 86 138H113Q166 138 166 110V27Q166 -2 113 -2H86Z" />
<glyph unicode="/" horiz-adv-x="422" d="M50 -78Q29 -78 19 -74T9 -62Q9 -59 11 -52T17 -38L309 678Q315 692 327 697T361 702H371Q394 702 403 698T413 686Q413 683 411 677T404 660L112 -56Q107 -70 95 -74T63 -78H50Z" />
<glyph unicode="0" horiz-adv-x="535" d="M268 -7Q198 -7 146 33T64 154T34 350Q34 467 64 546T146 666T268 707Q337 707 389 667T472 547T502 350Q502 234 472 154T390 34T268 -7ZM268 94Q298 94 322 121T360 205T374 350Q374 439 361 495T323 579T268 606Q237
606 213 579T176 496T162 350Q162 262 175 205T213 121T268 94Z" />
<glyph unicode="1" horiz-adv-x="535" d="M83 0Q56 0 56 43V58Q56 101 83 101H230V582L80 558Q69 558 63 571T54 601T52 631Q52 651 75 656L318 703Q330 703 343 696T356 680V101H470Q497 101 497 58V43Q497 0 470 0H83Z" />
<glyph unicode="2" horiz-adv-x="535" d="M66 0Q59 0 53 13T44 43T41 73Q41 84 44 88L299 403Q317 427 327 445T342 480T347 516Q347 560 318 582T243 605Q206 605 181 594T140 571T115 559Q103 559 92 570T74 596T66 622Q66 642 84 657T131 684T194 701T259 707Q362
707 418 656T475 520Q475 498 472 478T460 438T438 395T404 345T356 284L208 101H458Q485 101 485 58V43Q485 0 458 0H66Z" />
<glyph unicode="3" horiz-adv-x="535" d="M251 -7Q217 -7 180 -3T112 11T60 34T39 66Q39 76 46 92T63 120T83 133Q93 133 112 124T161 104T233 94Q263 94 289 105T331 141T347 205Q347 265 316 291T219 318H189Q163 318 163 361V376Q163 419 189 419H212Q251 419
276 434T313 471T325 519Q325 542 316 561T286 593T231 605Q190 605 166 598T127 582T104 574Q96 574 86 586T68 614T60 641Q60 657 77 669T122 690T183 703T249 707Q341 707 397 661T453 532Q453 480 426 443T356 388V384Q393 372 419 347T461 285T476 204Q476
151 458 112T409 46T337 6T251 -7Z" />
<glyph unicode="4" horiz-adv-x="535" d="M367 -2Q317 -2 317 27V151H41Q34 151 26 165T13 199T8 229Q8 237 10 240L318 685Q326 696 339 699T370 702H393Q443 702 443 673V252H491Q517 252 517 209V194Q517 151 491 151H443V27Q443 -2 393 -2H367ZM140 252H317V439Q317
460 319 485T326 526L322 527L140 252Z" />
<glyph unicode="5" horiz-adv-x="535" d="M234 -7Q178 -7 135 2T66 27T41 61Q41 70 49 86T68 116T89 130Q96 130 114 121T162 103T233 94Q269 94 296 107T340 147T357 212Q357 270 323 301T213 332H112Q92 332 85 341T78 369L96 663Q98 683 106 691T135 700H420Q446
700 446 657V635Q446 599 420 599H213L202 434H237Q288 434 332 423T411 388T465 321T484 215Q484 151 463 108T404 40T323 4T234 -7Z" />
<glyph unicode="6" horiz-adv-x="535" d="M267 -7Q221 -7 180 8T107 54T57 134T39 251Q39 339 61 406T120 524T199 609T280 664T347 694T383 703Q398 703 407 689T422 657T427 631Q427 623 425 619T416 613Q333 584 273 527T189 392Q216 408 243 414T301 420Q333
420 367 409T430 372T477 307T496 212Q496 155 477 114T425 46T352 6T267 -7ZM270 94Q295 94 317 107T354 146T369 208Q369 245 356 269T318 306T264 319Q237 319 213 311T169 291Q168 279 168 266T167 240Q167 184 181 153T220 108T270 94Z" />
<glyph unicode="7" horiz-adv-x="535" d="M143 -2Q89 -2 89 17Q89 20 90 24T94 33L357 599H77Q50 599 50 642V657Q50 700 77 700H473Q478 700 484 687T494 655T499 623Q499 617 497 611L223 17Q218 6 205 2T171 -2H143Z" />
<glyph unicode="8" horiz-adv-x="535" d="M270 -7Q193 -7 141 19T63 93T37 201Q37 250 51 285T89 342T141 377Q108 398 86 433T64 524Q64 576 88 617T160 682T274 707Q334 707 379 685T450 623T475 534Q475 471 450 437T385 384Q417 370 442 347T483 287T498 195Q498
155 484 118T442 53T370 9T270 -7ZM268 94Q300 94 323 108T358 147T371 201Q371 233 359 254T328 290T283 314T232 334Q202 314 183 285T164 207Q164 154 193 124T268 94ZM287 424Q317 443 334 468T352 527Q352 566 328 586T270 606Q237 606 213 587T189 527Q189
497 202 478T237 447T287 424Z" />
<glyph unicode="9" horiz-adv-x="535" d="M151 -4Q137 -4 127 10T112 42T107 69Q107 77 109 80T118 86Q202 114 261 172T346 307Q319 292 292 286T234 279Q201 279 168 291T105 327T57 392T39 488Q39 544 58 585T109 653T183 693T267 706Q313 706 354 691T427
645T477 565T495 448Q495 361 473 293T414 175T336 91T255 36T188 6T151 -4ZM270 381Q297 381 321 389T365 408Q367 421 367 433T367 459Q367 516 353 547T315 592T265 605Q240 605 217 592T180 553T166 492Q166 455 179 430T216 393T270 381Z" />
<glyph unicode=":" horiz-adv-x="198" d="M86 385Q33 385 33 413V496Q33 525 86 525H113Q166 525 166 496V413Q166 385 113 385H86ZM86 -2Q33 -2 33 27V110Q33 138 86 138H113Q166 138 166 110V27Q166 -2 113 -2H86Z" />
<glyph unicode=";" horiz-adv-x="198" d="M86 385Q33 385 33 413V496Q33 525 86 525H113Q166 525 166 496V413Q166 385 113 385H86ZM36 -122Q25 -122 11 -118T-3 -102Q-3 -96 -1 -89T6 -72Q18 -45 29 -5T41 98Q41 116 54 127T94 138H109Q137 138 149 128T162 100Q162
57 149 17T115 -54T73 -104T36 -122Z" />
<glyph unicode="&lt;" horiz-adv-x="560" d="M501 9Q518 9 518 45V60Q518 80 512 93T490 112L175 239L489 365Q505 371 511 384T517 417V432Q517 468 500 468Q497 468 494 468T485 465L69 288Q43 276 43 248V230Q43 202 69 190L486 12Q494 9 501 9Z" />
<glyph unicode="=" horiz-adv-x="560" d="M70 267Q43 267 43 310V320Q43 363 70 363H490Q517 363 517 320V310Q517 267 490 267H70ZM70 93Q43 93 43 136V145Q43 188 70 188H490Q517 188 517 145V136Q517 93 490 93H70Z" />
<glyph unicode="&gt;" horiz-adv-x="560" d="M59 9Q42 9 42 45V60Q42 80 48 93T70 112L384 239L70 365Q56 371 50 384T43 417V432Q43 468 59 468Q63 468 66 468T74 465L491 288Q517 276 517 248V230Q517 202 491 190L74 12Q66 9 59 9Z" />
<glyph unicode="?" horiz-adv-x="445" d="M168 215Q146 215 136 221T126 242Q126 283 147 321T200 394Q234 431 262 462T290 523Q290 558 267 576T198 595Q168 595 145 588T105 572T82 563Q71 563 59 577T39 608T30 635Q30 653 47 667T92 690T152 703T212 707Q279
707 326 685T399 624T425 533Q425 495 411 465T376 411T331 365Q298 335 270 306T235 240Q232 226 222 221T189 215H168ZM164 -2Q111 -2 111 27V110Q111 138 164 138H191Q244 138 244 110V27Q244 -2 191 -2H164Z" />
<glyph unicode="@" horiz-adv-x="974" d="M421 -124Q324 -124 251 -78T136 49T95 239Q95 338 129 423T225 571T368 671T545 707Q646 707 720 667T836 553T878 382Q878 314 861 255T814 152T742 82T653 57Q616 57 592 69T554 102T541 142V179L559 166Q544 117 508
87T423 57Q396 57 371 67T327 99T296 155T285 238Q285 318 309 378T377 473T479 507Q516 507 543 491T584 461Q590 483 597 493T630 503H640Q661 503 669 497T678 478Q678 478 676 457T670 402T663 330T655 256T649 197T647 167Q647 152 652 144T665 133T683 129Q710
129 734 149T777 204T806 285T817 382Q817 465 783 526T688 622T545 656Q463 656 393 625T269 536T185 403T155 239Q155 146 188 76T282 -34T421 -73Q470 -73 499 -66T545 -51T575 -44Q589 -44 589 -74Q589 -89 571 -98T524 -113T468 -121T421 -124ZM460 144Q475
144 490 152T520 178T547 224Q549 253 551 283T558 342T567 395Q556 405 539 413T500 421Q462 421 438 399T403 338T392 245Q392 192 410 168T460 144Z" />
<glyph unicode="A" horiz-adv-x="613" d="M59 -2Q4 -2 4 18Q4 22 5 26T8 35L234 683Q241 702 285 702H329Q374 702 380 683L606 35Q609 26 609 18Q609 -2 561 -2H530Q510 -2 497 2T479 17L433 154H177L131 17Q127 7 116 3T87 -2H59ZM214 266H395L322 486Q317 501
314 517T308 548H304Q301 533 298 517T289 486L214 266Z" />
<glyph unicode="B" horiz-adv-x="593" d="M120 0Q83 0 83 37V663Q83 700 120 700H311Q433 700 488 651T543 523Q543 489 528 459T489 405T434 371L435 367Q451 364 469 355T505 332T539 299T563 255T572 202Q572 103 509 52T318 0H120ZM214 112H329Q381 112 409
138T437 210Q437 254 405 277T313 301H214V112ZM214 413H300Q350 413 379 439T408 503Q408 546 382 567T300 589H214V413Z" />
<glyph unicode="C" horiz-adv-x="619" d="M376 -7Q209 -7 129 80T49 351Q49 707 380 707Q412 707 446 703T509 690T557 670Q582 655 582 640Q582 628 573 609T552 574T528 559Q523 559 506 568T457 586T378 595Q279 595 232 535T184 350Q184 227 231 166T376 105Q425
105 459 115T514 137T542 148Q555 148 567 133T586 99T593 73Q593 61 584 51T559 31Q537 19 506 11T441 -2T376 -7Z" />
<glyph unicode="D" horiz-adv-x="695" d="M120 0Q83 0 83 37V663Q83 700 120 700H330Q427 700 498 662T607 547T646 350Q646 261 624 195T561 86T461 22T330 0H120ZM215 112H327Q384 112 425 137T489 216T511 350Q511 431 489 484T426 562T327 588H215V112Z" />
<glyph unicode="E" horiz-adv-x="546" d="M121 0Q84 0 84 37V663Q84 700 121 700H471Q498 700 498 657V631Q498 588 471 588H215V414H443Q470 414 470 371V345Q470 302 443 302H215V112H472Q499 112 499 69V43Q499 0 472 0H121Z" />
<glyph unicode="F" horiz-adv-x="503" d="M136 -2Q83 -2 83 27V663Q83 700 120 700H444Q471 700 471 657V631Q471 588 444 588H214V387H433Q460 387 460 344V318Q460 275 433 275H214V27Q214 -2 161 -2H136Z" />
<glyph unicode="G" horiz-adv-x="672" d="M371 -7Q210 -7 130 80T49 349Q49 531 133 619T380 707Q414 707 450 702T517 688T567 666T586 640Q586 628 577 609T555 574T531 559Q526 559 508 568T458 586T378 595Q309 595 266 567T204 485T184 352Q184 295 194 249T227
171T286 122T373 105Q410 105 441 109T502 122L469 64V267H371Q344 267 344 310V336Q344 379 371 379H564Q601 379 601 343V69Q601 45 578 30T518 7T443 -4T371 -7Z" />
<glyph unicode="H" horiz-adv-x="733" d="M137 -2Q84 -2 84 27V673Q84 702 137 702H163Q216 702 216 673V414H518V673Q518 702 571 702H597Q650 702 650 673V27Q650 -2 597 -2H571Q518 -2 518 27V301H216V27Q216 -2 163 -2H137Z" />
<glyph unicode="I" horiz-adv-x="283" d="M128 -3Q75 -3 75 27V673Q75 703 128 703H154Q207 703 207 673V27Q207 -3 154 -3H128Z" />
<glyph unicode="J" horiz-adv-x="402" d="M118 -7Q107 -7 88 -6T49 -1T16 11T2 34Q2 40 5 59T16 96T37 114Q44 114 57 110T95 105Q150 105 174 131T198 216V673Q198 703 251 703H277Q330 703 330 673V203Q330 140 309 93T241 19T118 -7Z" />
<glyph unicode="K" horiz-adv-x="576" d="M132 -2Q79 -2 79 27V673Q79 702 132 702H157Q211 702 211 673V392H215L413 685Q420 695 435 698T471 702H506Q554 702 554 688Q554 679 546 667L333 366L581 32Q589 21 589 13Q589 -2 537 -2H495Q475 -2 460 1T436 15L215
325L211 324V27Q211 -2 157 -2H132Z" />
<glyph unicode="L" horiz-adv-x="484" d="M120 0Q83 0 83 37V673Q83 702 136 702H161Q214 702 214 673V112H451Q477 112 477 69V43Q477 0 451 0H120Z" />
<glyph unicode="M" horiz-adv-x="843" d="M406 177Q383 177 372 194L230 445Q223 455 218 465T207 486L203 485Q204 472 204 460T204 434V27Q204 -2 151 -2H129Q76 -2 76 27V673Q76 702 129 702H176Q197 702 211 697T232 678L406 371Q410 364 414 356T422 338Q425
347 430 356T438 372L612 678Q619 691 633 696T668 702H714Q767 702 767 673V27Q767 -2 714 -2H692Q639 -2 639 27V432Q639 445 639 457T640 483L636 484Q631 473 626 463T613 443L472 194Q461 177 438 177H406Z" />
<glyph unicode="N" horiz-adv-x="719" d="M129 -2Q76 -2 76 27V673Q76 702 129 702H165Q185 702 199 698T222 678L478 287Q489 272 497 258T513 227L517 228Q516 245 516 259T515 296V673Q515 702 568 702H590Q643 702 643 673V27Q643 -2 590 -2H558Q539 -2 526
2T503 21L241 419Q231 434 223 448T206 478L202 477Q204 460 204 446T204 409V27Q204 -2 151 -2H129Z" />
<glyph unicode="O" horiz-adv-x="731" d="M366 -7Q213 -7 131 85T49 350Q49 525 131 616T366 707Q519 707 600 616T682 350Q682 177 601 85T366 -7ZM366 105Q455 105 501 168T547 351Q547 470 501 532T366 595Q277 595 231 533T184 351Q184 231 230 168T366 105Z" />
<glyph unicode="P" horiz-adv-x="570" d="M128 -2Q75 -2 75 27V663Q75 700 111 700H319Q351 700 391 693T468 664T528 600T551 489Q551 432 534 394T489 332T430 296T372 279T329 274H206V27Q206 -2 153 -2H128ZM206 387H318Q332 387 349 391T382 406T407 437T417
489Q417 530 400 551T360 580T313 588H206V387Z" />
<glyph unicode="Q" horiz-adv-x="731" d="M641 -147Q639 -147 627 -143T592 -130T537 -108T460 -77T360 -37T234 13Q143 49 96 133T49 349Q49 523 131 615T366 707Q519 707 600 615T682 349Q682 223 638 140T510 22V18L678 -39Q692 -44 692 -55Q692 -60 688 -75T678
-106T662 -134T641 -147ZM366 101Q454 101 500 165T547 349Q547 468 501 531T366 595Q278 595 231 532T184 349Q184 229 231 165T366 101Z" />
<glyph unicode="R" horiz-adv-x="610" d="M132 -2Q79 -2 79 27V663Q79 700 115 700H301Q426 700 486 654T547 516Q547 456 515 415T431 353V349Q454 341 474 313T509 246L594 34Q598 22 598 17Q598 -2 544 -2H514Q494 -2 480 2T462 17L384 213Q367 253 343 269T266
286H210V27Q210 -2 157 -2H132ZM210 399H318Q344 399 365 412T399 448T412 498Q412 542 385 565T311 588H210V399Z" />
<glyph unicode="S" horiz-adv-x="500" d="M253 -7Q181 -7 130 8T52 42Q27 59 27 76Q27 89 36 107T59 138T80 152Q84 152 90 149T105 141Q125 131 157 118T235 105Q263 105 287 113T327 141T342 191Q342 225 320 245T262 280T189 312Q161 324 135 339T87 377T54
432T41 511Q41 577 73 620T159 685T273 707Q303 707 332 703T385 690T425 670Q446 656 446 640Q446 629 439 611T420 579T399 565Q394 565 387 569T366 578Q352 584 332 589T281 595Q243 595 220 585T186 557T176 519Q176 489 192 470T234 439T293 414Q324 401
356 386T416 347T460 289T477 203Q477 148 459 108T409 43T337 5T253 -7Z" />
<glyph unicode="T" horiz-adv-x="549" d="M262 -2Q209 -2 209 27V588H39Q12 588 12 631V657Q12 700 39 700H510Q537 700 537 657V631Q537 588 510 588H341V27Q341 -2 288 -2H262Z" />
<glyph unicode="U" horiz-adv-x="712" d="M356 -7Q220 -7 146 55T72 231V673Q72 702 125 702H150Q203 702 203 673V236Q203 198 222 168T277 122T356 105Q401 105 435 121T490 168T510 236V673Q510 702 563 702H587Q640 702 640 673V231Q640 118 566 56T356 -7Z" />
<glyph unicode="V" horiz-adv-x="617" d="M286 -2Q267 -2 254 2T236 17L15 665Q14 670 13 674T12 682Q12 702 67 702H93Q113 702 127 697T145 677L286 249Q294 224 300 199T309 156H312Q315 174 322 200T336 249L478 677Q482 691 496 696T530 702H551Q605 702
605 682Q605 675 602 665L382 17Q378 6 365 2T331 -2H286Z" />
<glyph unicode="W" horiz-adv-x="910" d="M231 -2Q210 -2 197 3T181 21L19 664Q18 669 18 672T17 679Q17 702 72 702H92Q117 702 132 696T150 676L240 308Q246 284 251 254T260 193T265 138H269Q273 164 278 193T289 249T300 297L396 682Q398 694 411 698T445
702H476Q496 702 509 698T525 682L616 308Q623 280 629 248T639 187T645 138H649Q652 160 656 188T667 245T679 297L771 676Q774 690 789 696T829 702H838Q893 702 893 679Q893 677 893 673T891 664L726 21Q723 8 709 3T675 -2H613Q594 -2 580 3T562 21L481 348Q477
367 470 408T456 493H452Q447 457 441 419T429 360L344 21Q340 8 326 3T293 -2H231Z" />
<glyph unicode="X" horiz-adv-x="611" d="M69 -2Q39 -2 26 2T12 16Q12 25 21 39L234 365L45 661Q35 676 35 684Q35 692 49 697T93 702H125Q145 702 158 699T179 684L309 479L445 685Q451 696 465 699T499 702H527Q556 702 570 698T584 684Q584 680 582 674T575
661L382 365L591 39Q599 25 599 16Q599 8 586 3T542 -2H511Q491 -2 478 1T457 16L306 251L152 15Q144 4 130 1T97 -2H69Z" />
<glyph unicode="Y" horiz-adv-x="559" d="M267 -2Q214 -2 214 27V344L12 660Q2 675 2 683Q2 692 16 697T60 702H92Q112 702 125 699T146 684L283 459L421 685Q428 695 442 698T476 702H502Q557 702 557 683Q557 679 555 673T548 660L345 341V27Q345 -2 292 -2H267Z" />
<glyph unicode="Z" horiz-adv-x="616" d="M65 0Q58 0 50 14T36 46T31 77Q31 83 33 87L394 588H88Q61 588 61 632V656Q61 700 88 700H545Q552 700 559 686T571 653T577 621Q577 614 573 608L215 112H550Q576 112 576 68V44Q576 0 550 0H65Z" />
<glyph unicode="[" horiz-adv-x="291" d="M110 -138Q74 -138 74 -101V731Q74 768 110 768H234Q261 768 261 732V720Q261 684 234 684H174V-54H234Q261 -54 261 -91V-102Q261 -138 234 -138H110Z" />
<glyph unicode="\" horiz-adv-x="422" d="M359 -78Q339 -78 327 -74T310 -56L18 660Q13 671 11 677T9 686Q9 694 18 698T51 702H61Q82 702 94 697T113 678L405 -38Q408 -45 410 -52T413 -62Q413 -70 403 -74T372 -78H359Z" />
<glyph unicode="]" horiz-adv-x="291" d="M57 -138Q31 -138 31 -102V-91Q31 -54 57 -54H117V684H57Q31 684 31 720V732Q31 768 57 768H181Q218 768 218 731V-101Q218 -138 181 -138H57Z" />
<glyph unicode="^" horiz-adv-x="450" d="M71 319Q41 319 41 336Q41 341 45 350L172 659Q178 673 187 679T212 685H239Q253 685 263 679T278 659L406 350Q409 341 409 336Q409 319 379 319H364Q330 319 318 346L225 572L132 346Q120 319 87 319H71Z" />
<glyph unicode="_" horiz-adv-x="535" d="M7 -138Q-20 -138 -20 -98V-91Q-20 -51 7 -51H529Q555 -51 555 -91V-98Q555 -138 529 -138H7Z" />
<glyph unicode="`" horiz-adv-x="181" d="M146 573Q125 573 109 579T78 601L22 663Q11 676 6 685T0 701Q0 711 12 714T51 718Q79 718 93 716T115 707T128 689L168 615Q174 605 177 599T181 588Q181 581 174 577T146 573Z" />
<glyph unicode="a" horiz-adv-x="545" d="M200 -7Q122 -7 83 33T44 140Q44 182 61 216T113 274T207 311T347 325V363Q347 393 327 411T258 429Q219 429 190 420T144 402T120 393Q111 393 100 407T82 438T74 463Q74 479 99 494T167 520T264 530Q337 530 383 510T451
453T473 367V166Q473 118 476 91T482 50T485 28Q485 20 474 15T447 6T416 1T393 -1Q378 -1 371 10T361 38T355 68Q346 57 326 39T275 7T200 -7ZM234 94Q272 94 300 113T347 160V236Q310 236 279 232T223 219T185 194T172 152Q172 125 187 110T234 94Z" />
<glyph unicode="b" horiz-adv-x="569" d="M333 -7Q288 -7 252 13T191 68Q186 40 176 19Q170 6 160 2T131 -2H122Q73 -2 73 27V725Q73 753 126 753H145Q198 753 198 725V492Q219 508 247 519T315 530Q411 530 467 459T523 262Q523 178 499 118T433 25T333 -7ZM299
97Q346 97 370 140T394 264Q394 344 368 386T287 428Q261 428 239 421T198 400V160Q218 133 243 115T299 97Z" />
<glyph unicode="c" horiz-adv-x="485" d="M295 -7Q170 -7 108 57T45 260Q45 331 62 382T111 466T190 514T296 530Q333 530 369 523T431 502T456 469Q456 461 448 444T430 414T410 400Q408 400 404 402T395 406Q382 413 359 421T300 429Q238 429 207 390T176 263Q176
177 204 136T300 94Q337 94 362 103T403 118Q408 120 412 121T418 123Q428 123 438 110T456 81T464 56Q464 39 446 27T400 8T344 -3T295 -7Z" />
<glyph unicode="d" horiz-adv-x="565" d="M235 -7Q179 -7 137 25T70 117T45 262Q45 387 101 458T254 530Q293 530 321 519T370 492V725Q370 753 423 753H443Q496 753 496 725V166Q496 118 499 91T505 50T508 28Q508 20 497 15T470 6T439 1T416 -1Q401 -1 394 10T384
38T378 68Q354 34 317 14T235 -7ZM270 97Q300 97 325 115T370 160V400Q353 413 331 420T282 428Q228 428 201 386T174 264Q174 183 198 140T270 97Z" />
<glyph unicode="e" horiz-adv-x="539" d="M302 -7Q170 -7 108 63T46 258Q46 354 75 414T159 502T286 530Q362 530 408 497T477 405T499 271Q499 264 491 251T471 228T454 218H178Q183 151 216 123T306 94Q342 94 368 103T412 120T436 129Q445 129 456 116T474
87T482 62Q482 46 465 34T419 12T360 -2T302 -7ZM178 308H374Q374 364 353 396T285 429Q242 429 214 401T178 308Z" />
<glyph unicode="f" horiz-adv-x="325" d="M142 -2Q89 -2 89 27V422H63Q37 422 37 465V480Q37 523 63 523H89V605Q89 648 99 677T129 725T174 751T229 759Q244 759 265 757T303 745T320 716Q320 712 317 697T308 667T292 653Q287 653 279 655T257 657Q244 657 235
653T220 637T215 603V523H278Q304 523 304 480V465Q304 422 278 422H215V27Q215 -2 162 -2H142Z" />
<glyph unicode="g" horiz-adv-x="546" d="M259 -212Q186 -212 136 -198T59 -153T33 -76Q33 -36 57 -5T123 43L124 46Q104 58 93 78T82 124Q82 153 97 176T140 216Q101 236 80 271T58 357Q58 416 84 454T158 511T266 530Q285 530 303 529T337 523H505Q532 523 532
480V465Q532 424 509 424Q501 424 482 426T451 432L450 429Q462 414 468 396T475 357Q475 302 450 265T379 209T273 190Q228 190 212 180T196 148Q196 126 219 116T277 102T353 92Q394 85 430 71T488 28T510 -49Q510 -99 480 -135T394 -192T259 -212ZM270 -112Q330
-112 359 -97T388 -53Q388 -35 375 -25T337 -10T281 0T210 9Q185 -1 170 -17T154 -55Q154 -83 181 -97T270 -112ZM266 284Q303 284 329 301T355 360Q355 401 329 418T266 436Q229 436 203 419T177 360Q177 318 203 301T266 284Z" />
<glyph unicode="h" horiz-adv-x="565" d="M128 -2Q75 -2 75 27V725Q75 753 128 753H148Q201 753 201 725V462Q225 489 262 509T346 530Q379 530 407 522T456 494T488 444T500 368V27Q500 -2 447 -2H427Q374 -2 374 27V351Q374 385 355 405T297 425Q277 425 261
418T232 400T212 379T201 363V27Q201 -2 148 -2H128Z" />
<glyph unicode="i" horiz-adv-x="265" d="M123 -2Q70 -2 70 27V496Q70 525 123 525H143Q196 525 196 496V27Q196 -2 143 -2H123ZM133 581Q99 581 84 588T69 610V682Q69 696 84 703T133 710Q167 710 182 703T197 682V610Q197 596 182 589T133 581Z" />
<glyph unicode="j" horiz-adv-x="276" d="M66 -212Q36 -212 15 -208T-16 -195T-27 -168Q-27 -158 -23 -144T-12 -118T4 -106Q10 -106 18 -108T38 -111Q59 -111 70 -99T81 -57V496Q81 525 134 525H154Q207 525 207 496V-58Q207 -100 195 -129T163 -177T118 -203T66
-212ZM144 581Q110 581 95 588T80 610V682Q80 696 95 703T144 710Q177 710 192 703T207 682V610Q207 596 192 589T144 581Z" />
<glyph unicode="k" horiz-adv-x="521" d="M129 -2Q76 -2 76 27V725Q76 753 129 753H148Q202 753 202 725V311L206 310L351 508Q359 519 374 522T409 525H435Q483 525 483 511Q483 502 474 491L290 245L291 326L497 32Q505 20 505 13Q505 -2 452 -2H424Q404 -2
389 1T366 15L206 247H202V27Q202 -2 148 -2H129Z" />
<glyph unicode="l" horiz-adv-x="297" d="M210 -7Q180 -7 155 1T110 27T81 74T70 146V725Q70 753 123 753H142Q195 753 195 725V148Q195 118 206 106T238 94Q250 94 257 96T270 98Q279 98 285 84T294 55T298 35Q298 16 282 7T246 -5T210 -7Z" />
<glyph unicode="m" horiz-adv-x="848" d="M123 -2Q70 -2 70 27V355Q70 402 67 429T61 470T58 491Q58 499 69 504T96 513T127 518T150 520Q165 520 172 509T182 483T188 455Q211 484 250 507T338 530Q369 530 395 523T441 498T473 452Q498 483 539 506T629 530Q662
530 689 522T737 494T768 444T779 368V27Q779 -2 726 -2H706Q653 -2 653 27V351Q653 385 636 405T581 425Q557 425 539 415T509 391T489 365T480 352V416Q484 404 485 391T487 366V27Q487 -2 434 -2H415Q361 -2 361 27V351Q361 385 345 405T290 425Q271 425 255
418T226 401T207 380T196 363V27Q196 -2 143 -2H123Z" />
<glyph unicode="n" horiz-adv-x="557" d="M123 -2Q70 -2 70 27V355Q70 402 67 429T61 470T58 491Q58 499 69 504T96 513T127 518T150 520Q165 520 172 509T182 483T189 455Q214 486 253 508T340 530Q416 530 454 490T492 368V27Q492 -2 439 -2H420Q367 -2 367
27V351Q367 386 349 405T292 425Q260 425 236 405T196 363V27Q196 -2 143 -2H123Z" />
<glyph unicode="o" horiz-adv-x="569" d="M286 -7Q169 -7 108 62T46 261Q46 392 107 461T286 530Q402 530 462 461T523 261Q523 131 463 62T286 -7ZM285 94Q341 94 367 136T394 262Q394 345 368 387T285 429Q228 429 202 388T175 261Q175 178 201 136T285 94Z" />
<glyph unicode="p" horiz-adv-x="573" d="M129 -207Q76 -207 76 -178V355Q76 402 73 429T67 470T64 491Q64 499 75 504T101 513T132 518T155 520Q170 520 177 509T187 483T194 455Q218 489 254 509T336 530Q393 530 436 498T502 406T526 261Q526 136 470 65T318
-7Q279 -7 251 4T201 31V-178Q201 -207 148 -207H129ZM290 95Q344 95 370 137T397 259Q397 340 373 383T302 426Q272 426 247 408T201 363V123Q219 111 241 103T290 95Z" />
<glyph unicode="q" horiz-adv-x="566" d="M426 -207Q373 -207 373 -178V31Q353 16 325 5T257 -7Q159 -7 102 64T45 261Q45 345 69 405T137 498T238 530Q284 530 320 510T381 455Q383 468 386 480T393 504Q397 517 409 521T440 525H449Q499 525 499 496V-178Q499
-207 446 -207H426ZM284 95Q312 95 334 103T373 123V363Q354 390 329 408T273 426Q224 426 199 383T174 259Q174 179 201 137T284 95Z" />
<glyph unicode="r" horiz-adv-x="366" d="M125 -2Q72 -2 72 27V355Q72 402 69 429T63 470T60 491Q60 499 71 504T98 513T129 518T152 520Q166 520 173 509T184 483T190 455Q209 486 235 508T301 530Q336 530 347 517T359 481Q359 472 356 455T346 423T331 408Q321
408 311 412T282 417Q260 417 242 406T213 383T198 363V27Q198 -2 144 -2H125Z" />
<glyph unicode="s" horiz-adv-x="413" d="M195 -8Q156 -8 118 1T56 25T32 58Q32 69 40 84T59 113T79 126Q85 126 99 118T134 102T185 93Q259 93 259 147Q259 175 234 189T172 219Q144 230 114 246T64 292T44 373Q44 422 66 457T128 511T220 531Q251 531 284 525T341
507T364 478Q364 468 358 451T343 421T325 407Q318 407 296 418T235 430Q206 430 188 419T170 383Q170 357 190 344T251 316Q283 305 313 288T364 239T385 157Q385 109 362 72T296 13T195 -8Z" />
<glyph unicode="t" horiz-adv-x="342" d="M227 -7Q198 -7 173 1T128 27T98 74T87 146V422H60Q33 422 33 465V480Q33 523 60 523H87L100 621Q104 650 146 650H170Q213 650 213 621V523H274Q301 523 301 480V465Q301 422 274 422H213V148Q213 118 224 106T255 94Q268
94 275 96T288 98Q297 98 303 84T312 55T316 35Q316 16 300 7T264 -5T227 -7Z" />
<glyph unicode="u" horiz-adv-x="557" d="M217 -7Q142 -7 104 33T65 155V496Q65 525 118 525H137Q190 525 190 496V172Q190 137 208 118T265 98Q297 98 321 118T361 160V496Q361 525 414 525H434Q487 525 487 496V166Q487 118 490 91T496 50T499 28Q499 20 488
15T461 6T430 1T407 -1Q392 -1 385 10T375 38T368 68Q343 38 304 16T217 -7Z" />
<glyph unicode="v" horiz-adv-x="485" d="M226 -2Q207 -2 194 2T176 17L16 488Q15 492 14 496T12 505Q12 525 67 525H91Q110 525 123 521T141 506L209 292Q221 254 230 215T245 145H249Q253 175 262 214T286 298L352 506Q356 517 369 521T403 525H420Q473 525
473 505Q473 498 470 488L310 17Q306 6 293 2T259 -2H226Z" />
<glyph unicode="w" horiz-adv-x="747" d="M203 -2Q182 -2 169 3T154 17L26 485Q25 490 24 494T22 502Q22 513 35 519T79 525Q111 525 126 521T144 506L212 234Q218 212 222 186T230 140H234Q236 155 241 181T254 236L321 505Q324 516 336 520T370 525H389Q407
525 421 521T438 505L506 233Q515 199 519 176T525 137H527Q531 159 535 185T546 234L614 506Q616 516 630 520T667 525Q721 525 721 502Q721 499 721 496T719 487L595 17Q593 8 579 3T546 -2H503Q482 -2 469 3T454 17L389 271Q384 291 381 312T375 353H372Q370
335 367 314T359 271L296 17Q294 8 280 3T246 -2H203Z" />
<glyph unicode="x" horiz-adv-x="485" d="M66 -2Q37 -2 24 2T10 16Q10 23 20 38L175 266L30 484Q20 499 20 507Q20 515 34 520T77 525H101Q121 525 135 523T156 507L229 393Q235 385 238 378T246 365Q250 372 254 378T264 394L338 508Q345 520 359 522T394 525H414Q470
525 470 507Q470 500 460 485L312 267L465 39Q475 24 475 16Q475 8 462 3T418 -2H394Q374 -2 360 1T339 16L257 143Q252 151 248 157T241 168Q238 163 235 157T226 143L142 15Q135 4 121 1T87 -2H66Z" />
<glyph unicode="y" horiz-adv-x="481" d="M161 -207Q110 -207 110 -187Q110 -184 111 -180T115 -170L202 56V-38L16 488Q15 492 14 496T13 505Q13 525 68 525H91Q111 525 124 521T142 506L216 291Q222 271 230 239T245 177H248Q256 206 264 239T278 291L351 506Q355
517 368 521T402 525H419Q472 525 472 505Q472 498 469 488L230 -186Q226 -197 212 -202T177 -207H161Z" />
<glyph unicode="z" horiz-adv-x="489" d="M57 0Q52 0 46 12T35 39T30 67Q30 76 33 80L285 422H74Q48 422 48 465V480Q48 523 74 523H427Q433 523 439 511T449 483T453 455Q453 446 451 441L200 101H430Q456 101 456 58V43Q456 0 430 0H57Z" />
<glyph unicode="{" horiz-adv-x="274" d="M186 -138Q163 -138 142 -125T108 -87T95 -22V146Q95 195 85 223T46 264Q33 271 26 281T19 309V321Q19 339 26 349T46 366Q75 378 85 406T95 484V652Q95 691 108 716T142 755T186 768H229Q256 768 256 732V721Q256 685
232 685H226Q208 685 202 675T195 640V468Q195 427 184 397T157 346T123 315Q141 306 157 286T184 234T195 162V-10Q195 -32 201 -43T222 -55H231Q256 -56 256 -91V-102Q256 -138 229 -138H186Z" />
<glyph unicode="|" horiz-adv-x="250" d="M119 -139Q78 -139 78 -111V741Q78 769 119 769H132Q173 769 173 741V-111Q173 -139 132 -139H119Z" />
<glyph unicode="}" horiz-adv-x="274" d="M49 -138Q23 -138 23 -102V-91Q23 -55 48 -55H56Q72 -55 78 -43T84 -10V162Q84 203 95 234T122 285T155 315Q138 325 122 345T95 396T84 468V640Q84 664 78 674T54 685H46Q23 685 23 721V732Q23 768 49 768H92Q116 768
137 755T171 717T184 652V484Q184 435 194 407T232 366Q246 359 253 349T260 321V309Q260 292 253 282T232 264Q204 252 194 224T184 146V-22Q184 -61 171 -86T137 -125T92 -138H49Z" />
<glyph unicode="~" horiz-adv-x="560" d="M103 210Q96 210 84 215T71 231Q71 242 76 257Q86 284 113 307T185 330Q222 330 255 320T320 300T383 290Q408 290 420 300T440 321T456 332Q463 332 476 326T489 310Q489 304 488 298T484 285Q470 252 444 232T377 212Q338
212 305 222T242 243T185 253Q159 253 144 243T120 221T103 210Z" />
<glyph unicode="&#xa0;" horiz-adv-x="240" />
<glyph unicode="&#xa1;" horiz-adv-x="294" d="M111 -180Q58 -180 58 -154Q58 -147 60 -115T68 -34T78 71T90 181T100 279Q102 293 110 300T144 307H155Q181 307 190 300T199 279V-151Q199 -180 146 -180H111ZM136 385Q83 385 83 413V496Q83 525 136 525H163Q216
525 216 496V413Q216 385 163 385H136Z" />
<glyph unicode="&#xa2;" horiz-adv-x="470" d="M290 -78Q264 -78 264 -55V565Q264 588 290 588H295Q321 588 321 565V-55Q321 -78 295 -78H290ZM280 -7Q155 -7 93 57T30 260Q30 331 47 382T96 466T175 514T280 530Q317 530 354 523T416 502T441 469Q441 461 433
444T414 414T395 400Q393 400 389 402T379 406Q366 413 343 421T285 429Q223 429 192 390T161 263Q161 177 189 136T284 94Q322 94 348 103T388 118Q393 120 397 121T403 123Q413 123 423 110T441 81T449 56Q449 39 431 27T384 8T328 -3T280 -7Z" />
<glyph unicode="&#xa3;" horiz-adv-x="530" d="M88 0Q55 0 55 37V55Q55 70 67 80T94 100T122 126T134 169V321H94Q67 321 67 364V379Q67 422 94 422H134V501Q134 602 188 654T356 707Q367 707 384 706T420 702T450 690T463 667Q463 654 458 639T446 613T429 601Q424
601 408 605T365 609Q311 609 285 585T258 506V422H380Q406 422 406 379V364Q406 321 380 321H258V250Q258 206 252 177T236 131T212 101H455Q481 101 481 58V43Q481 0 455 0H88Z" />
<glyph unicode="&#xa4;" horiz-adv-x="550" d="M124 97Q113 97 101 108L81 128Q71 138 71 150Q71 162 82 174L105 197Q91 219 83 245T75 300Q75 359 106 406L80 432Q68 444 68 456Q68 467 78 477L100 499Q111 510 122 510Q134 510 146 498L172 471Q195 485 221
492T275 500Q303 500 329 493T378 471L405 498Q417 509 429 509Q441 509 452 498L472 478Q483 467 483 456Q483 444 471 432L444 404Q459 382 466 356T474 300Q474 272 467 247T445 198L469 174Q481 162 481 150Q481 139 470 127L450 108Q438 97 427 97Q415 97
403 108L380 132Q358 117 331 109T275 101Q246 101 219 108T170 130L148 108Q136 97 124 97ZM275 197Q303 197 326 211T364 248T379 301Q379 329 365 352T327 390T275 404Q246 404 223 390T185 353T171 301Q171 272 185 249T222 211T275 197Z" />
<glyph unicode="&#xa5;" horiz-adv-x="600" d="M90 340Q64 340 64 370V382Q64 412 90 412H267L300 392L333 412H510Q536 412 536 382V370Q536 339 510 339L90 340ZM90 193Q64 193 64 223V236Q64 266 90 266H510Q536 266 536 236V223Q536 193 510 193H90ZM288 -2Q235
-2 235 27V344L33 660Q23 675 23 683Q23 692 37 697T81 702H113Q133 702 146 699T167 684L304 459L442 685Q449 695 463 698T497 702H523Q578 702 578 683Q578 674 569 660L366 341V27Q366 -2 313 -2H288Z" />
<glyph unicode="&#xa6;" horiz-adv-x="250" d="M119 388Q78 388 78 416V741Q78 770 119 770H132Q173 770 173 741V416Q173 388 132 388H119ZM119 -140Q78 -140 78 -111V213Q78 242 119 242H132Q173 242 173 213V-111Q173 -140 132 -140H119Z" />
<glyph unicode="&#xa7;" horiz-adv-x="429" d="M207 -7Q190 -7 166 -5T119 4T81 22T65 49Q65 56 71 72T86 102T104 116Q111 116 133 105T191 94Q223 94 239 105T255 135Q255 155 241 165T205 184T158 201Q131 212 105 229T62 275T45 353Q45 387 56 415T87 464Q71
479 60 501T49 557Q49 606 72 639T135 690T225 707Q242 707 266 705T313 696T351 679T367 652Q367 645 361 629T346 598T328 584Q322 584 300 595T241 607Q208 607 193 596T177 565Q177 547 191 536T227 517T273 499Q301 488 327 472T370 426T387 348Q387 313 376
285T344 237Q361 221 371 199T382 144Q382 95 360 62T298 11T207 -7ZM247 283Q258 291 265 304T272 338Q272 363 260 377T228 401T184 418Q174 409 167 396T159 364Q159 339 171 324T203 300T247 283Z" />
<glyph unicode="&#xa8;" horiz-adv-x="282" d="M227 587Q197 587 184 594T171 615V676Q171 691 184 698T227 705Q256 705 269 698T282 676V615Q282 601 269 594T227 587ZM56 587Q26 587 13 594T0 615V676Q0 691 13 698T56 705Q85 705 98 698T112 676V615Q112 601
99 594T56 587Z" />
<glyph unicode="&#xa9;" horiz-adv-x="739" d="M370 -7Q295 -7 230 21T116 98T39 212T11 351Q11 426 39 491T116 604T230 681T370 709Q444 709 509 681T623 604T700 491T728 351Q728 277 700 212T623 98T509 21T370 -7ZM384 147Q289 147 243 196T197 352Q197 555
386 555Q412 555 439 550T484 537T502 517Q502 510 497 499T484 479T471 470Q468 470 458 475T431 486T385 491Q328 491 301 457T273 352Q273 281 300 246T384 210Q412 210 431 216T463 229T479 236Q486 236 492 227T503 207T508 192Q508 179 488 169T439 153T384
147ZM370 52Q432 52 486 75T581 140T646 235T670 351Q670 414 647 467T582 562T486 627T369 650Q308 650 254 627T158 563T94 468T70 351Q70 290 93 236T158 140T253 76T370 52Z" />
<glyph unicode="&#xaa;" horiz-adv-x="319" d="M118 440Q81 440 62 460T42 514Q42 542 56 562T104 594T190 605V623Q190 638 181 645T149 652Q119 652 103 645T81 637Q74 637 66 652T58 674Q58 685 85 696T155 707Q208 707 233 685T258 626V526Q258 490 261 476T264
457Q264 452 254 449T233 444T216 442Q205 442 202 454T196 476Q192 471 182 463T156 447T118 440ZM138 498Q154 498 168 506T190 526V558Q168 558 150 555T121 544T110 521Q110 511 117 505T138 498Z" />
<glyph unicode="&#xab;" horiz-adv-x="470" d="M385 51Q373 51 360 65L232 220Q217 237 217 258Q217 279 232 296L360 451Q373 464 385 464Q394 464 405 458T426 442T436 421Q436 411 428 399L317 258L428 116Q436 105 436 95Q436 86 428 76T407 59T385 51ZM196
51Q183 51 171 65L42 220Q28 237 28 258Q28 279 42 296L171 451Q183 464 196 464Q204 464 216 458T237 442T247 421Q247 411 238 399L128 258L238 116Q247 105 247 95Q247 86 239 76T218 59T196 51Z" />
<glyph unicode="&#xac;" horiz-adv-x="560" d="M468 74Q445 74 435 82T425 102V250H60Q33 250 33 293V302Q33 345 60 345H490Q527 345 527 309V102Q527 90 518 82T483 74H468Z" />
<glyph unicode="&#xad;" horiz-adv-x="320" d="M60 218Q34 218 34 261V269Q34 312 60 312H260Q286 312 286 269V261Q286 218 260 218H60Z" />
<glyph unicode="&#xae;" horiz-adv-x="739" d="M276 152Q245 152 245 168V531Q245 552 266 552H371Q443 552 477 526T511 447Q511 413 493 390T445 354V351Q458 346 469 331T490 293L538 173Q540 167 540 163Q540 152 510 152H493Q468 152 463 163L419 275Q409
298 396 307T352 316H319V168Q319 152 289 152H276ZM319 380H381Q403 380 419 397T435 436Q435 462 419 475T377 488H319V380ZM370 -7Q295 -7 230 21T116 98T39 212T11 351Q11 426 39 491T116 604T230 681T370 709Q444 709 509 681T623 604T700 491T728 351Q728
277 700 212T623 98T509 21T370 -7ZM370 52Q432 52 486 75T581 140T646 235T670 351Q670 414 647 467T582 562T486 627T369 650Q308 650 254 627T158 563T94 468T70 351Q70 290 93 236T158 140T253 76T370 52Z" />
<glyph unicode="&#xaf;" horiz-adv-x="287" d="M27 602Q0 602 0 639V652Q0 689 27 689H260Q287 689 287 652V639Q287 602 260 602H27Z" />
<glyph unicode="&#xb0;" horiz-adv-x="345" d="M172 442Q136 442 106 460T58 508T40 574Q40 611 58 641T106 689T172 707Q209 707 239 689T287 641T305 574Q305 538 287 508T239 460T172 442ZM172 498Q202 498 224 520T246 574Q246 606 225 628T172 651Q142 651
121 629T99 574Q99 543 120 521T172 498Z" />
<glyph unicode="&#xb1;" horiz-adv-x="560" d="M274 138Q231 138 231 164V317H70Q43 317 43 360V367Q43 410 70 410H231V573Q231 600 274 600H285Q328 600 328 573V410H490Q517 410 517 367V360Q517 317 490 317H328V164Q328 138 285 138H274ZM69 0Q43 0 43 42V51Q43
94 69 94H491Q517 94 517 51V42Q517 0 491 0H69Z" />
<glyph unicode="&#xb2;" horiz-adv-x="310" d="M38 350Q31 350 26 365T21 391Q21 396 23 399T28 407L172 585Q184 599 189 609T198 630T201 651Q201 677 184 690T140 704Q118 704 103 698T79 684T64 677Q54 677 45 690T36 713Q36 729 54 740T98 757T149 763Q209
763 242 733T276 654Q276 632 271 615T256 583T234 552L119 409H266Q281 409 281 384V375Q281 350 266 350H38Z" />
<glyph unicode="&#xb3;" horiz-adv-x="310" d="M146 343Q119 343 90 348T41 362T21 387Q21 393 25 402T36 418T47 426Q55 426 76 415T135 403Q153 403 168 410T193 431T202 469Q202 503 184 519T126 535H109Q94 535 94 560V569Q94 594 109 594H123Q145 594 160
602T182 624T189 653Q189 666 184 677T166 696T134 703Q98 703 83 694T60 685Q52 685 43 700T33 724Q33 737 50 746T93 759T144 763Q199 763 231 736T264 660Q264 629 248 608T207 576V574Q239 563 258 535T277 468Q277 427 260 399T212 357T146 343Z" />
<glyph unicode="&#xb4;" horiz-adv-x="181" d="M34 573Q14 573 7 577T0 588Q0 593 3 599T12 615L52 689Q59 700 66 706T87 715T129 718Q156 718 168 715T181 701Q181 694 176 685T159 663L103 601Q88 585 72 579T34 573Z" />
<glyph unicode="&#xb5;" horiz-adv-x="566" d="M125 -207Q72 -207 72 -178V496Q72 525 125 525H145Q198 525 198 496V172Q198 137 216 118T272 98Q304 98 329 118T368 160V496Q368 525 421 525H441Q494 525 494 496V166Q494 118 497 91T503 50T506 28Q506 20 495
15T468 6T437 1T414 -1Q400 -1 393 10T382 38T376 68Q351 37 312 15T230 -7Q209 -7 189 -1T154 16L171 55Q184 15 189 -22T196 -97T198 -178Q198 -207 145 -207H125Z" />
<glyph unicode="&#xb6;" horiz-adv-x="515" d="M271 -172Q243 -172 243 -144V247Q187 254 141 285T68 366T41 473Q41 539 71 590T154 671T268 700H474Q501 700 501 671V665Q501 638 474 638H445V-144Q445 -172 417 -172H411Q383 -172 383 -144V638H305V-144Q305
-172 277 -172H271Z" />
<glyph unicode="&#xb7;" horiz-adv-x="267" d="M134 296Q107 296 89 314T70 359Q70 386 88 404T134 423Q160 423 178 405T197 359Q197 333 179 315T134 296Z" />
<glyph unicode="&#xb8;" horiz-adv-x="243" d="M125 -211Q100 -211 71 -206T21 -190T0 -164Q0 -148 8 -139T25 -129Q38 -129 64 -139T123 -150Q135 -150 144 -148T159 -139T165 -123Q165 -109 154 -103T129 -93T105 -87T94 -75Q94 -72 95 -66T101 -44T117 7H173L156
-58L136 -48Q186 -48 214 -67T243 -122Q243 -154 228 -173T187 -202T125 -211Z" />
<glyph unicode="&#xb9;" horiz-adv-x="310" d="M161 349Q147 349 139 353T131 366V692L54 678Q44 678 41 694T37 721Q37 733 50 736L183 762Q189 762 196 758T204 749V366Q204 358 196 354T173 349H161Z" />
<glyph unicode="&#xba;" horiz-adv-x="337" d="M169 441Q111 441 81 475T50 574Q50 639 81 673T169 707Q227 707 257 673T287 574Q287 509 257 475T169 441ZM169 497Q217 497 217 574Q217 651 169 651Q120 651 120 574Q120 497 169 497Z" />
<glyph unicode="&#xbb;" horiz-adv-x="470" d="M274 51Q264 51 252 58T232 76T223 95Q223 105 232 116L342 258L232 399Q223 411 223 421Q223 432 232 441T254 457T274 464Q289 464 299 451L428 296Q442 279 442 258Q442 237 428 220L299 65Q288 51 274 51ZM85
51Q75 51 63 58T43 76T34 95Q34 105 42 116L153 258L42 399Q34 411 34 421Q34 432 43 441T64 457T85 464Q99 464 110 451L238 296Q253 279 253 258Q253 237 238 220L110 65Q98 51 85 51Z" />
<glyph unicode="&#xbc;" horiz-adv-x="750" d="M138 289Q124 289 116 293T108 306V632L30 618Q21 618 18 634T14 661Q14 673 27 676L159 702Q166 702 173 698T181 689V306Q181 298 173 294T150 289H138ZM633 -1Q604 -1 604 15V87H448Q442 87 437 95T429 113T425
130Q425 136 429 141L605 398Q609 405 616 406T634 408H648Q677 408 677 391V146H705Q720 146 720 121V112Q720 87 705 87H677V15Q677 -1 648 -1H633ZM498 146H605V254Q605 273 607 287T613 312L610 313L498 146ZM151 -1Q132 -1 132 9Q132 12 134 15T138 23L515
681Q526 701 551 701H566Q587 701 587 691Q587 689 586 686T582 678L206 22Q199 10 191 5T169 -1H151Z" />
<glyph unicode="&#xbd;" horiz-adv-x="750" d="M138 289Q124 289 116 293T108 306V632L30 618Q21 618 18 634T14 661Q14 673 27 676L159 702Q166 702 173 698T181 689V306Q181 298 173 294T150 289H138ZM457 0Q450 0 446 15T441 41Q441 46 442 49T448 57L592 235Q603
249 609 259T617 280T620 301Q620 327 603 340T560 354Q538 354 523 348T499 334T484 327Q474 327 465 340T456 363Q456 379 474 390T518 407T568 413Q629 413 662 383T695 304Q695 282 690 265T676 233T653 202L538 59H685Q701 59 701 34V25Q701 0 685 0H457ZM126
-1Q108 -1 108 9Q108 12 110 15T114 23L491 681Q502 701 527 701H542Q563 701 563 691Q563 689 561 686T557 678L182 22Q175 10 167 5T145 -1H126Z" />
<glyph unicode="&#xbe;" horiz-adv-x="750" d="M136 283Q109 283 80 288T31 302T11 327Q11 333 15 342T26 358T37 366Q45 366 66 355T125 343Q143 343 158 350T183 371T192 409Q192 443 174 459T116 475H99Q84 475 84 500V509Q84 534 99 534H113Q135 534 150 542T172
564T179 593Q179 606 174 617T156 636T124 643Q88 643 73 634T50 625Q42 625 33 640T23 664Q23 677 40 686T83 699T134 703Q189 703 221 676T254 600Q254 569 238 548T197 516V514Q229 503 248 475T267 408Q267 367 250 339T202 297T136 283ZM633 -1Q604 -1 604
15V87H448Q442 87 437 95T429 113T425 130Q425 136 429 141L605 398Q609 405 616 406T634 408H648Q677 408 677 391V146H705Q720 146 720 121V112Q720 87 705 87H677V15Q677 -1 648 -1H633ZM498 146H605V254Q605 273 607 287T613 312L610 313L498 146ZM180 -1Q162
-1 162 9Q162 12 163 15T167 23L544 681Q556 701 580 701H595Q616 701 616 691Q616 689 615 686T611 678L236 22Q229 10 221 5T198 -1H180Z" />
<glyph unicode="&#xbf;" horiz-adv-x="425" d="M284 308Q306 308 316 302T326 281Q326 241 305 203T252 129Q218 92 190 61T162 0Q162 -35 185 -53T254 -72Q284 -72 307 -64T347 -48T370 -40Q381 -40 393 -54T413 -85T422 -112Q422 -130 405 -144T360 -167T300
-180T240 -184Q173 -184 126 -162T53 -101T27 -10Q27 29 41 58T76 112T121 158Q154 189 182 217T217 283Q220 297 230 302T263 308H284ZM288 525Q341 525 341 496V413Q341 385 288 385H261Q208 385 208 413V496Q208 525 261 525H288Z" />
<glyph unicode="&#xc0;" horiz-adv-x="613" d="M59 -2Q4 -2 4 18Q4 22 5 26T8 35L234 683Q241 702 285 702H329Q374 702 380 683L606 35Q609 26 609 18Q609 -2 561 -2H530Q510 -2 497 2T479 17L433 154H177L131 17Q127 7 116 3T87 -2H59ZM214 266H395L322 486Q317
501 314 517T308 548H304Q301 533 298 517T289 486L214 266ZM362 750Q337 750 323 754T291 770L216 818Q197 832 190 839T183 853Q183 864 200 867T247 871Q281 871 298 866T330 844L384 785Q391 777 393 772T396 763Q396 750 362 750Z" />
<glyph unicode="&#xc1;" horiz-adv-x="613" d="M59 -2Q4 -2 4 18Q4 22 5 26T8 35L234 683Q241 702 285 702H329Q374 702 380 683L606 35Q609 26 609 18Q609 -2 561 -2H530Q510 -2 497 2T479 17L433 154H177L131 17Q127 7 116 3T87 -2H59ZM214 266H395L322 486Q317
501 314 517T308 548H304Q301 533 298 517T289 486L214 266ZM251 750Q217 750 217 763Q217 767 220 772T229 785L283 844Q298 860 315 865T366 871Q397 871 414 868T431 853Q431 847 424 839T397 818L322 770Q305 758 291 754T251 750Z" />
<glyph unicode="&#xc2;" horiz-adv-x="613" d="M59 -2Q4 -2 4 18Q4 22 5 26T8 35L234 683Q241 702 285 702H329Q374 702 380 683L606 35Q609 26 609 18Q609 -2 561 -2H530Q510 -2 497 2T479 17L433 154H177L131 17Q127 7 116 3T87 -2H59ZM214 266H395L322 486Q317
501 314 517T308 548H304Q301 533 298 517T289 486L214 266ZM199 737Q178 737 172 739T165 747Q165 750 168 755T184 775L238 835Q250 849 262 853T296 858H316Q339 858 350 854T375 835L428 776Q442 761 444 756T447 747Q447 742 441 740T414 737Q400 737 387
741T362 752L306 786L252 753Q240 746 227 742T199 737Z" />
<glyph unicode="&#xc3;" horiz-adv-x="613" d="M59 -2Q4 -2 4 18Q4 22 5 26T8 35L234 683Q241 702 285 702H329Q374 702 380 683L606 35Q609 26 609 18Q609 -2 561 -2H530Q510 -2 497 2T479 17L433 154H177L131 17Q127 7 116 3T87 -2H59ZM214 266H395L322 486Q317
501 314 517T308 548H304Q301 533 298 517T289 486L214 266ZM165 752Q157 752 142 760T126 778Q126 783 128 789T133 800Q145 827 170 847T234 868Q258 868 285 860T338 843T381 834Q400 834 411 843T431 860T449 869Q459 869 473 860T487 839Q487 832 481 820Q468
796 443 775T379 754Q354 754 327 762T274 779T229 788Q211 788 200 779T182 761T165 752Z" />
<glyph unicode="&#xc4;" horiz-adv-x="613" d="M59 -2Q4 -2 4 18Q4 22 5 26T8 35L234 683Q241 702 285 702H329Q374 702 380 683L606 35Q609 26 609 18Q609 -2 561 -2H530Q510 -2 497 2T479 17L433 154H177L131 17Q127 7 116 3T87 -2H59ZM214 266H395L322 486Q317
501 314 517T308 548H304Q301 533 298 517T289 486L214 266ZM396 750Q365 750 352 757T338 779V843Q338 857 351 864T396 871Q426 871 439 864T453 843V779Q453 764 440 757T396 750ZM218 750Q188 750 175 757T161 779V843Q161 857 174 864T218 871Q249 871 262
864T276 843V779Q276 764 263 757T218 750Z" />
<glyph unicode="&#xc5;" horiz-adv-x="613" d="M59 -2Q4 -2 4 18Q4 22 5 26T8 35L234 683Q241 702 285 702H329Q374 702 380 683L606 35Q609 26 609 18Q609 -2 561 -2H530Q510 -2 497 2T479 17L433 154H177L131 17Q127 7 116 3T87 -2H59ZM214 266H395L322 486Q317
501 314 517T307 548H304Q301 533 298 517T289 486L214 266ZM306 728Q266 728 239 755T212 822Q212 862 239 889T306 917Q347 917 374 890T401 822Q401 782 374 755T306 728ZM306 785Q322 785 332 796T343 821Q343 837 333 847T306 858Q291 858 281 848T270 821Q270
806 280 796T306 785Z" />
<glyph unicode="&#xc6;" horiz-adv-x="915" d="M51 -2Q23 -2 11 3T-2 18Q-2 28 2 36L323 673Q336 700 366 700H824Q850 700 850 657V631Q850 588 824 588H491L527 414H796Q822 414 822 371V345Q822 302 796 302H549L588 112H825Q851 112 851 69V43Q851 0 825 0H509Q493
0 485 7T473 30L449 154H188L121 17Q116 8 105 3T77 -2H51ZM244 266H427L383 488L382 562H379L353 489L244 266Z" />
<glyph unicode="&#xc7;" horiz-adv-x="619" d="M376 -7Q209 -7 129 80T49 351Q49 707 380 707Q412 707 446 703T509 690T557 670Q582 655 582 640Q582 628 573 609T552 574T528 559Q523 559 506 568T457 586T378 595Q279 595 232 535T184 350Q184 227 231 166T376
105Q425 105 459 115T514 137T542 148Q555 148 567 133T586 99T593 73Q593 61 584 51T559 31Q537 19 506 11T441 -2T376 -7ZM330 -211Q304 -211 275 -206T225 -190T204 -164Q204 -148 212 -139T229 -129Q242 -129 268 -139T327 -150Q339 -150 348 -148T363 -139T369
-123Q369 -109 359 -103T334 -93T309 -87T298 -75Q298 -72 299 -66T306 -44T321 7H378L360 -58L341 -48Q391 -48 419 -67T447 -122Q447 -154 432 -173T391 -202T330 -211Z" />
<glyph unicode="&#xc8;" horiz-adv-x="546" d="M121 0Q84 0 84 37V663Q84 700 121 700H471Q498 700 498 657V631Q498 588 471 588H215V414H443Q470 414 470 371V345Q470 302 443 302H215V112H472Q499 112 499 69V43Q499 0 472 0H121ZM345 750Q320 750 306 754T274
770L199 818Q179 832 172 839T165 853Q165 864 182 867T230 871Q264 871 281 866T313 844L367 785Q374 777 376 772T379 763Q379 750 345 750Z" />
<glyph unicode="&#xc9;" horiz-adv-x="546" d="M121 0Q84 0 84 37V663Q84 700 121 700H471Q498 700 498 657V631Q498 588 471 588H215V414H443Q470 414 470 371V345Q470 302 443 302H215V112H472Q499 112 499 69V43Q499 0 472 0H121ZM234 750Q200 750 200 763Q200
767 203 772T212 785L266 844Q281 860 298 865T349 871Q380 871 397 868T414 853Q414 847 407 839T380 818L305 770Q287 758 273 754T234 750Z" />
<glyph unicode="&#xca;" horiz-adv-x="546" d="M121 0Q84 0 84 37V663Q84 700 121 700H471Q498 700 498 657V631Q498 588 471 588H215V414H443Q470 414 470 371V345Q470 302 443 302H215V112H472Q499 112 499 69V43Q499 0 472 0H121ZM182 737Q161 737 155 739T148
747Q148 750 151 755T167 775L221 835Q233 849 244 853T279 858H299Q322 858 333 854T358 835L411 776Q424 761 427 756T430 747Q430 742 424 740T396 737Q383 737 370 741T344 752L289 786L235 753Q223 746 210 742T182 737Z" />
<glyph unicode="&#xcb;" horiz-adv-x="546" d="M121 0Q84 0 84 37V663Q84 700 121 700H471Q498 700 498 657V631Q498 588 471 588H215V414H443Q470 414 470 371V345Q470 302 443 302H215V112H472Q499 112 499 69V43Q499 0 472 0H121ZM378 750Q348 750 335 757T321
779V843Q321 857 334 864T378 871Q409 871 422 864T435 843V779Q435 764 422 757T378 750ZM201 750Q171 750 158 757T144 779V843Q144 857 157 864T201 871Q231 871 244 864T258 843V779Q258 764 245 757T201 750Z" />
<glyph unicode="&#xcc;" horiz-adv-x="283" d="M128 -3Q75 -3 75 27V673Q75 703 128 703H154Q207 703 207 673V27Q207 -3 154 -3H128ZM197 750Q172 750 158 754T126 770L51 818Q31 832 24 839T17 853Q17 864 34 867T82 871Q116 871 133 866T165 844L219 785Q226
777 228 772T231 763Q231 750 197 750Z" />
<glyph unicode="&#xcd;" horiz-adv-x="283" d="M128 -3Q75 -3 75 27V673Q75 703 128 703H154Q207 703 207 673V27Q207 -3 154 -3H128ZM86 750Q52 750 52 763Q52 767 54 772T64 785L118 844Q133 860 150 865T201 871Q231 871 248 868T265 853Q265 847 258 839T232
818L157 770Q139 758 125 754T86 750Z" />
<glyph unicode="&#xce;" horiz-adv-x="283" d="M128 -3Q75 -3 75 27V673Q75 703 128 703H154Q207 703 207 673V27Q207 -3 154 -3H128ZM34 737Q13 737 7 739T0 747Q0 750 3 755T18 775L73 835Q85 849 96 853T131 858H151Q174 858 185 854T210 835L263 776Q276 761
279 756T282 747Q282 742 276 740T248 737Q234 737 221 741T196 752L141 786L87 753Q75 746 62 742T34 737Z" />
<glyph unicode="&#xcf;" horiz-adv-x="283" d="M128 -3Q75 -3 75 27V673Q75 703 128 703H154Q207 703 207 673V27Q207 -3 154 -3H128ZM230 750Q200 750 187 757T173 779V843Q173 857 186 864T230 871Q260 871 273 864T287 843V779Q287 764 274 757T230 750ZM53
750Q23 750 10 757T-4 779V843Q-4 857 9 864T53 871Q83 871 96 864T110 843V779Q110 764 97 757T53 750Z" />
<glyph unicode="&#xd0;" horiz-adv-x="696" d="M34 301Q8 301 8 344V369Q8 412 34 412H324Q351 412 351 369V344Q351 301 324 301H34ZM120 0Q83 0 83 37V663Q83 700 120 700H330Q427 700 498 662T607 547T646 350Q646 261 624 195T561 86T461 22T330 0H120ZM215
112H327Q384 112 425 137T489 216T511 350Q511 431 489 484T426 562T327 588H215V112Z" />
<glyph unicode="&#xd1;" horiz-adv-x="719" d="M129 -2Q76 -2 76 27V673Q76 702 129 702H165Q185 702 199 698T222 678L478 287Q489 272 497 258T513 227L517 228Q516 245 516 259T515 296V673Q515 702 568 702H590Q643 702 643 673V27Q643 -2 590 -2H558Q539
-2 526 2T503 21L241 419Q231 434 223 448T206 478L202 477Q204 460 204 446T204 409V27Q204 -2 151 -2H129ZM218 752Q210 752 195 760T179 778Q179 783 181 789T186 800Q198 827 223 847T287 868Q311 868 338 860T391 843T434 834Q453 834 464 843T484 860T502
869Q512 869 526 860T540 839Q540 832 534 820Q521 796 496 775T432 754Q407 754 380 762T327 779T282 788Q264 788 253 779T235 761T218 752Z" />
<glyph unicode="&#xd2;" horiz-adv-x="731" d="M366 -7Q213 -7 131 85T49 351Q49 525 131 616T366 707Q519 707 600 616T682 351Q682 177 601 85T366 -7ZM366 105Q455 105 501 168T547 351Q547 470 501 532T366 595Q277 595 231 533T184 351Q184 231 230 168T366
105ZM421 750Q396 750 382 754T350 770L275 818Q256 832 249 839T242 853Q242 864 259 867T306 871Q340 871 357 866T389 844L443 785Q450 777 452 772T455 763Q455 750 421 750Z" />
<glyph unicode="&#xd3;" horiz-adv-x="731" d="M366 -7Q213 -7 131 85T49 351Q49 525 131 616T366 707Q519 707 600 616T682 351Q682 177 601 85T366 -7ZM366 105Q455 105 501 168T547 351Q547 470 501 532T366 595Q277 595 231 533T184 351Q184 231 230 168T366
105ZM310 750Q276 750 276 763Q276 767 279 772T288 785L342 844Q357 860 374 865T425 871Q456 871 473 868T490 853Q490 847 483 839T456 818L381 770Q364 758 350 754T310 750Z" />
<glyph unicode="&#xd4;" horiz-adv-x="731" d="M366 -7Q213 -7 131 85T49 351Q49 525 131 616T366 707Q519 707 600 616T682 351Q682 177 601 85T366 -7ZM366 105Q455 105 501 168T547 351Q547 470 501 532T366 595Q277 595 231 533T184 351Q184 231 230 168T366
105ZM258 737Q237 737 231 739T224 747Q224 750 227 755T243 775L297 835Q309 849 321 853T355 858H375Q398 858 409 854T434 835L487 776Q501 761 503 756T506 747Q506 742 500 740T473 737Q459 737 446 741T421 752L365 786L311 753Q299 746 286 742T258 737Z"
/>
<glyph unicode="&#xd5;" horiz-adv-x="731" d="M366 -7Q213 -7 131 85T49 351Q49 525 131 616T366 707Q519 707 600 616T682 351Q682 177 601 85T366 -7ZM366 105Q455 105 501 168T547 351Q547 470 501 532T366 595Q277 595 231 533T184 351Q184 231 230 168T366
105ZM224 752Q216 752 201 760T185 778Q185 783 187 789T192 800Q204 827 229 847T293 868Q317 868 344 860T397 843T440 834Q459 834 470 843T490 860T508 869Q518 869 532 860T546 839Q546 832 540 820Q527 796 502 775T438 754Q413 754 386 762T333 779T288
788Q270 788 259 779T241 761T224 752Z" />
<glyph unicode="&#xd6;" horiz-adv-x="731" d="M366 -7Q213 -7 131 85T49 351Q49 525 131 616T366 707Q519 707 600 616T682 351Q682 177 601 85T366 -7ZM366 105Q455 105 501 168T547 351Q547 470 501 532T366 595Q277 595 231 533T184 351Q184 231 230 168T366
105ZM455 750Q424 750 411 757T397 779V843Q397 857 410 864T455 871Q485 871 498 864T512 843V779Q512 764 499 757T455 750ZM277 750Q247 750 234 757T220 779V843Q220 857 233 864T277 871Q308 871 321 864T335 843V779Q335 764 322 757T277 750Z" />
<glyph unicode="&#xd7;" horiz-adv-x="560" d="M108 7Q100 7 87 17T62 42T51 65Q51 73 60 82L215 237L60 393Q51 402 51 410Q51 418 61 431T85 456T108 467Q117 467 125 459L280 303L436 459Q445 467 453 467Q462 467 475 457T499 433T510 410Q510 401 502 393L346
237L502 82Q510 73 510 65Q510 55 499 42T474 18T453 7Q445 7 436 16L280 172L125 16Q116 7 108 7Z" />
<glyph unicode="&#xd8;" horiz-adv-x="731" d="M82 3Q73 -8 63 -8Q57 -8 48 -2T31 14T24 30Q24 38 33 48L619 706Q629 716 638 716Q646 716 655 710T671 696T678 679Q678 671 669 661L82 3ZM366 -7Q213 -7 131 85T49 351Q49 525 131 616T366 707Q519 707 600 616T682
351Q682 177 601 85T366 -7ZM366 105Q455 105 501 168T547 351Q547 470 501 532T366 595Q277 595 231 533T184 351Q184 231 230 168T366 105Z" />
<glyph unicode="&#xd9;" horiz-adv-x="712" d="M356 -7Q220 -7 146 55T72 231V673Q72 702 125 702H150Q203 702 203 673V236Q203 198 222 168T277 122T356 105Q401 105 435 121T490 168T510 236V673Q510 702 563 702H587Q640 702 640 673V231Q640 118 566 56T356
-7ZM411 750Q386 750 372 754T340 770L265 818Q246 832 239 839T232 853Q232 864 249 867T296 871Q330 871 347 866T379 844L433 785Q440 777 442 772T445 763Q445 750 411 750Z" />
<glyph unicode="&#xda;" horiz-adv-x="712" d="M356 -7Q220 -7 146 55T72 231V673Q72 702 125 702H150Q203 702 203 673V236Q203 198 222 168T277 122T356 105Q401 105 435 121T490 168T510 236V673Q510 702 563 702H587Q640 702 640 673V231Q640 118 566 56T356
-7ZM300 750Q266 750 266 763Q266 767 269 772T278 785L332 844Q347 860 364 865T415 871Q446 871 463 868T480 853Q480 847 473 839T446 818L371 770Q354 758 340 754T300 750Z" />
<glyph unicode="&#xdb;" horiz-adv-x="712" d="M356 -7Q220 -7 146 55T72 231V673Q72 702 125 702H150Q203 702 203 673V236Q203 198 222 168T277 122T356 105Q401 105 435 121T490 168T510 236V673Q510 702 563 702H587Q640 702 640 673V231Q640 118 566 56T356
-7ZM248 737Q227 737 221 739T214 747Q214 750 217 755T233 775L287 835Q299 849 311 853T345 858H365Q388 858 399 854T424 835L477 776Q491 761 493 756T496 747Q496 742 490 740T463 737Q449 737 436 741T411 752L355 786L301 753Q289 746 276 742T248 737Z"
/>
<glyph unicode="&#xdc;" horiz-adv-x="712" d="M356 -7Q220 -7 146 55T72 231V673Q72 702 125 702H150Q203 702 203 673V236Q203 198 222 168T277 122T356 105Q401 105 435 121T490 168T510 236V673Q510 702 563 702H587Q640 702 640 673V231Q640 118 566 56T356
-7ZM445 750Q414 750 401 757T387 779V843Q387 857 400 864T445 871Q475 871 488 864T502 843V779Q502 764 489 757T445 750ZM267 750Q237 750 224 757T210 779V843Q210 857 223 864T267 871Q298 871 311 864T325 843V779Q325 764 312 757T267 750Z" />
<glyph unicode="&#xdd;" horiz-adv-x="559" d="M267 -2Q214 -2 214 27V344L12 660Q2 675 2 683Q2 692 16 697T60 702H92Q112 702 125 699T146 684L283 459L421 685Q428 695 442 698T476 702H502Q557 702 557 683Q557 674 548 660L345 341V27Q345 -2 292 -2H267ZM224
750Q190 750 190 763Q190 767 193 772T202 785L256 844Q271 860 288 865T339 871Q370 871 387 868T404 853Q404 847 397 839T370 818L295 770Q278 758 264 754T224 750Z" />
<glyph unicode="&#xde;" horiz-adv-x="570" d="M128 -2Q75 -2 75 27V673Q75 702 128 702H153Q206 702 206 673V588H319Q351 588 391 581T468 552T528 488T551 377Q551 320 534 282T489 220T430 184T372 167T329 162H206V27Q206 -2 153 -2H128ZM206 275H318Q332
275 349 279T382 294T407 325T417 377Q417 418 400 439T360 468T313 476H206V275Z" />
<glyph unicode="&#xdf;" horiz-adv-x="554" d="M122 -2Q69 -2 69 27V501Q69 564 97 610T174 681T287 707Q347 707 395 688T471 630T500 532Q500 485 475 446T404 387V383Q467 362 496 318T526 209Q526 146 498 99T419 26T299 0H273Q246 0 246 43V58Q246 101 273
101H293Q339 101 368 130T398 209Q398 260 368 290T286 321H273Q246 321 246 364V379Q246 422 271 422H276Q303 422 324 435T358 469T371 517Q371 542 361 561T332 590T285 601Q243 601 219 576T195 509V27Q195 -2 142 -2H122Z" />
<glyph unicode="&#xe0;" horiz-adv-x="545" d="M200 -7Q122 -7 83 33T44 140Q44 182 61 216T113 274T207 311T347 325V363Q347 393 327 411T258 429Q219 429 190 420T144 402T120 393Q111 393 100 407T82 438T74 463Q74 479 99 494T167 520T264 530Q337 530 383
510T451 453T473 367V166Q473 118 476 91T482 50T485 28Q485 20 474 15T447 6T416 1T393 -1Q378 -1 371 10T361 38T355 68Q346 57 326 39T275 7T200 -7ZM234 94Q272 94 300 113T347 160V236Q310 236 279 232T223 219T185 194T172 152Q172 125 187 110T234 94ZM290
573Q269 573 253 579T222 601L166 663Q155 676 150 685T144 701Q144 711 156 714T195 718Q223 718 237 716T259 707T272 689L312 615Q318 605 321 599T325 588Q325 581 318 577T290 573Z" />
<glyph unicode="&#xe1;" horiz-adv-x="545" d="M200 -7Q122 -7 83 33T44 140Q44 182 61 216T113 274T207 311T347 325V363Q347 393 327 411T258 429Q219 429 190 420T144 402T120 393Q111 393 100 407T82 438T74 463Q74 479 99 494T167 520T264 530Q337 530 383
510T451 453T473 367V166Q473 118 476 91T482 50T485 28Q485 20 474 15T447 6T416 1T393 -1Q378 -1 371 10T361 38T355 68Q346 57 326 39T275 7T200 -7ZM234 94Q272 94 300 113T347 160V236Q310 236 279 232T223 219T185 194T172 152Q172 125 187 110T234 94ZM233
573Q213 573 206 577T199 588Q199 593 202 599T211 615L251 689Q257 700 264 706T286 715T328 718Q355 718 367 715T379 701Q379 694 374 685T358 663L302 601Q286 585 271 579T233 573Z" />
<glyph unicode="&#xe2;" horiz-adv-x="545" d="M200 -7Q122 -7 83 33T44 140Q44 182 61 216T113 274T207 311T347 325V363Q347 393 327 411T258 429Q219 429 190 420T144 402T120 393Q111 393 100 407T82 438T74 463Q74 479 99 494T167 520T264 530Q337 530 383
510T451 453T473 367V166Q473 118 476 91T482 50T485 28Q485 20 474 15T447 6T416 1T393 -1Q378 -1 371 10T361 38T355 68Q346 57 326 39T275 7T200 -7ZM234 94Q272 94 300 113T347 160V236Q310 236 279 232T223 219T185 194T172 152Q172 125 187 110T234 94ZM175
573Q141 573 141 588Q141 593 144 599T153 615L196 692Q203 706 216 712T260 718H284Q316 718 329 712T349 692L392 615Q397 606 400 600T404 588Q404 573 369 573Q347 573 336 579T314 598L273 645L232 598Q221 586 210 580T175 573Z" />
<glyph unicode="&#xe3;" horiz-adv-x="545" d="M200 -7Q122 -7 83 33T44 140Q44 182 61 216T113 274T207 311T347 325V363Q347 393 327 411T258 429Q219 429 190 420T144 402T120 393Q111 393 100 407T82 438T74 463Q74 479 99 494T167 520T264 530Q337 530 383
510T451 453T473 367V166Q473 118 476 91T482 50T485 28Q485 20 474 15T447 6T416 1T393 -1Q378 -1 371 10T361 38T355 68Q346 57 326 39T275 7T200 -7ZM234 94Q272 94 300 113T347 160V236Q310 236 279 232T223 219T185 194T172 152Q172 125 187 110T234 94ZM133
585Q128 585 118 588T100 598T92 611Q92 621 97 631Q110 662 134 681T195 700Q220 700 244 693T290 678T331 670Q352 670 362 678T379 694T395 702Q400 702 410 698T428 686T436 672Q436 669 435 665T430 651Q418 626 395 607T330 588Q308 588 284 595T237 611T198
619Q179 619 168 611T150 594T133 585Z" />
<glyph unicode="&#xe4;" horiz-adv-x="545" d="M200 -7Q122 -7 83 33T44 140Q44 182 61 216T113 274T207 311T347 325V363Q347 393 327 411T258 429Q219 429 190 420T144 402T120 393Q111 393 100 407T82 438T74 463Q74 479 99 494T167 520T264 530Q337 530 383
510T451 453T473 367V166Q473 118 476 91T482 50T485 28Q485 20 474 15T447 6T416 1T393 -1Q378 -1 371 10T361 38T355 68Q346 57 326 39T275 7T200 -7ZM234 94Q272 94 300 113T347 160V236Q310 236 279 232T223 219T185 194T172 152Q172 125 187 110T234 94ZM358
587Q329 587 316 594T303 615V676Q303 691 316 698T358 705Q388 705 401 698T414 676V615Q414 601 401 594T358 587ZM188 587Q158 587 145 594T132 615V676Q132 691 145 698T188 705Q217 705 230 698T243 676V615Q243 601 230 594T188 587Z" />
<glyph unicode="&#xe5;" horiz-adv-x="545" d="M200 -7Q122 -7 83 33T44 140Q44 182 61 216T113 274T207 311T347 325V363Q347 393 327 411T258 429Q219 429 190 420T144 402T120 393Q111 393 100 407T82 438T74 463Q74 479 99 494T167 520T264 530Q337 530 383
510T451 453T473 367V166Q473 118 476 91T482 50T485 28Q485 20 474 15T447 6T416 1T393 -1Q378 -1 371 10T361 38T355 68Q346 57 326 39T275 7T200 -7ZM234 94Q272 94 300 113T347 160V236Q310 236 279 232T223 219T185 194T172 152Q172 125 187 110T234 94ZM272
551Q231 551 204 578T176 645Q176 685 203 712T272 740Q313 740 341 713T369 645Q369 605 341 578T272 551ZM272 609Q287 609 297 619T308 644Q308 660 298 670T272 680Q258 680 248 670T237 644Q237 630 247 620T272 609Z" />
<glyph unicode="&#xe6;" horiz-adv-x="819" d="M212 -7Q134 -7 89 33T44 140Q44 178 59 210T107 267T196 305T332 319Q336 364 351 397Q339 414 315 421T258 429Q222 429 194 420T146 402T120 393Q111 393 100 407T82 438T74 463Q74 479 99 494T167 520T264 530Q318
530 357 520T422 490Q480 530 566 530Q642 530 688 499T757 412T779 283Q779 275 771 263T752 240T735 230H460Q462 181 478 151T522 108T586 94Q622 94 648 103T692 120T716 129Q725 129 736 116T754 87T762 62Q762 46 745 34T699 12T640 -2T582 -7Q518 -7 471
10T392 59Q378 46 353 30T292 4T212 -7ZM234 94Q267 94 296 107T344 143Q331 182 329 230Q282 230 247 222T192 198T172 152Q172 125 187 110T234 94ZM459 320H654Q654 373 631 401T565 429Q539 429 517 419T480 386T459 320Z" />
<glyph unicode="&#xe7;" horiz-adv-x="485" d="M295 -7Q170 -7 108 57T45 260Q45 331 62 382T111 466T190 514T296 530Q333 530 369 523T431 502T456 469Q456 461 448 444T430 414T410 400Q408 400 404 402T395 406Q382 413 359 421T300 429Q238 429 207 390T176
263Q176 177 204 136T300 94Q337 94 363 103T403 118Q408 120 412 121T418 123Q428 123 438 110T456 81T464 56Q464 39 446 27T400 8T344 -3T295 -7ZM273 -211Q247 -211 218 -206T169 -190T148 -164Q148 -148 156 -139T173 -129Q185 -129 211 -139T271 -150Q283
-150 292 -148T306 -139T312 -123Q312 -109 302 -103T277 -93T252 -87T241 -75Q241 -72 242 -66T249 -44T264 7H321L303 -58L284 -48Q334 -48 362 -67T391 -122Q391 -154 376 -173T334 -202T273 -211Z" />
<glyph unicode="&#xe8;" horiz-adv-x="539" d="M302 -7Q170 -7 108 63T46 258Q46 354 75 414T159 502T286 530Q362 530 408 497T477 405T499 271Q499 264 491 251T471 228T454 218H178Q183 151 216 123T306 94Q342 94 368 103T412 120T436 129Q445 129 456 116T474
87T482 62Q482 46 465 34T419 12T360 -2T302 -7ZM178 308H374Q374 364 353 396T285 429Q242 429 214 401T178 308ZM295 573Q274 573 258 579T227 601L171 663Q160 676 155 685T149 701Q149 711 161 714T200 718Q228 718 242 716T264 707T277 689L317 615Q323 605
326 599T330 588Q330 581 323 577T295 573Z" />
<glyph unicode="&#xe9;" horiz-adv-x="539" d="M302 -7Q170 -7 108 63T46 258Q46 354 75 414T159 502T286 530Q362 530 408 497T477 405T499 271Q499 264 491 251T471 228T454 218H178Q183 151 216 123T306 94Q342 94 368 103T412 120T436 129Q445 129 456 116T474
87T482 62Q482 46 465 34T419 12T360 -2T302 -7ZM178 308H374Q374 364 353 396T285 429Q242 429 214 401T178 308ZM239 573Q218 573 211 577T204 588Q204 593 207 599T216 615L256 689Q263 700 270 706T291 715T333 718Q360 718 372 715T385 701Q385 694 380 685T363
663L307 601Q292 585 276 579T239 573Z" />
<glyph unicode="&#xea;" horiz-adv-x="539" d="M302 -7Q170 -7 108 63T46 258Q46 354 75 414T159 502T286 530Q362 530 408 497T477 405T499 271Q499 264 491 251T471 228T454 218H178Q183 151 216 123T306 94Q342 94 368 103T412 120T436 129Q445 129 456 116T474
87T482 62Q482 46 465 34T419 12T360 -2T302 -7ZM178 308H374Q374 364 353 396T285 429Q242 429 214 401T178 308ZM181 573Q146 573 146 588Q146 593 149 599T158 615L201 692Q209 706 222 712T266 718H290Q321 718 334 712T354 692L397 615Q402 606 405 600T409
588Q409 573 375 573Q352 573 341 579T319 598L278 645L237 598Q226 586 215 580T181 573Z" />
<glyph unicode="&#xeb;" horiz-adv-x="539" d="M302 -7Q170 -7 108 63T46 258Q46 354 75 414T159 502T286 530Q362 530 408 497T477 405T499 271Q499 264 491 251T471 228T454 218H178Q183 151 216 123T306 94Q342 94 368 103T412 120T436 129Q445 129 456 116T474
87T482 62Q482 46 465 34T419 12T360 -2T302 -7ZM178 308H374Q374 364 353 396T285 429Q242 429 214 401T178 308ZM364 587Q334 587 321 594T308 615V676Q308 691 321 698T364 705Q393 705 406 698T420 676V615Q420 601 407 594T364 587ZM193 587Q163 587 150 594T137
615V676Q137 691 150 698T193 705Q222 705 235 698T249 676V615Q249 601 236 594T193 587Z" />
<glyph unicode="&#xec;" horiz-adv-x="265" d="M123 -2Q70 -2 70 27V496Q70 525 123 525H143Q196 525 196 496V27Q196 -2 143 -2H123ZM150 573Q129 573 113 579T82 601L26 663Q15 676 10 685T4 701Q4 711 16 714T55 718Q83 718 97 716T119 707T132 689L172 615Q178
605 181 599T185 588Q185 581 178 577T150 573Z" />
<glyph unicode="&#xed;" horiz-adv-x="265" d="M123 -2Q70 -2 70 27V496Q70 525 123 525H143Q196 525 196 496V27Q196 -2 143 -2H123ZM93 573Q73 573 66 577T59 588Q59 593 62 599T71 615L111 689Q117 700 124 706T146 715T188 718Q215 718 227 715T239 701Q239
694 234 685T218 663L162 601Q146 585 131 579T93 573Z" />
<glyph unicode="&#xee;" horiz-adv-x="265" d="M123 -2Q70 -2 70 27V496Q70 525 123 525H143Q196 525 196 496V27Q196 -2 143 -2H123ZM35 573Q1 573 1 588Q1 593 4 599T13 615L56 692Q63 706 76 712T120 718H144Q176 718 189 712T209 692L252 615Q257 606 260
600T264 588Q264 573 229 573Q207 573 196 579T174 598L133 645L92 598Q81 586 70 580T35 573Z" />
<glyph unicode="&#xef;" horiz-adv-x="265" d="M123 -2Q70 -2 70 27V496Q70 525 123 525H143Q196 525 196 496V27Q196 -2 143 -2H123ZM218 587Q189 587 176 594T163 615V676Q163 691 176 698T218 705Q248 705 261 698T274 676V615Q274 601 261 594T218 587ZM48
587Q18 587 5 594T-8 615V676Q-8 691 5 698T48 705Q77 705 90 698T103 676V615Q103 601 90 594T48 587Z" />
<glyph unicode="&#xf0;" horiz-adv-x="569" d="M286 -7Q169 -7 108 62T46 261Q46 392 107 461T286 530Q310 530 332 527T375 516L361 489Q350 521 337 547T310 595Q278 591 264 589T246 587T240 586Q227 586 217 598T206 624Q206 637 225 639L278 647Q267 661
256 675T244 697Q244 707 262 709Q274 711 286 712T312 715Q332 715 346 703Q356 696 364 686T383 661Q418 666 432 667T451 669T455 670Q468 670 477 657T487 632Q487 619 469 617L418 610Q446 567 470 511T508 392T523 261Q523 131 463 62T286 -7ZM285 94Q342
94 368 136T394 262Q394 345 368 387T285 429Q228 429 201 388T174 262Q174 178 201 136T285 94Z" />
<glyph unicode="&#xf1;" horiz-adv-x="557" d="M123 -2Q70 -2 70 27V355Q70 402 67 429T61 470T58 491Q58 499 69 504T96 513T127 518T150 520Q165 520 172 509T182 483T189 455Q214 486 253 508T340 530Q416 530 454 490T492 368V27Q492 -2 439 -2H420Q367 -2
367 27V351Q367 386 349 405T292 425Q260 425 236 405T196 363V27Q196 -2 143 -2H123ZM139 585Q134 585 124 588T106 598T98 611Q98 621 103 631Q116 662 140 681T201 700Q226 700 250 693T296 678T337 670Q358 670 368 678T385 694T401 702Q406 702 416 698T434
686T442 672Q442 669 441 665T436 651Q424 626 401 607T336 588Q314 588 290 595T243 611T204 619Q185 619 174 611T156 594T139 585Z" />
<glyph unicode="&#xf2;" horiz-adv-x="569" d="M286 -7Q169 -7 108 62T46 261Q46 392 107 461T286 530Q402 530 462 461T523 261Q523 131 463 62T286 -7ZM285 94Q342 94 368 136T394 262Q394 345 368 387T285 429Q228 429 202 388T175 262Q175 178 201 136T285
94ZM302 573Q281 573 265 579T234 601L178 663Q167 676 162 685T156 701Q156 711 168 714T207 718Q235 718 249 716T271 707T284 689L324 615Q330 605 333 599T337 588Q337 581 330 577T302 573Z" />
<glyph unicode="&#xf3;" horiz-adv-x="569" d="M286 -7Q169 -7 108 62T46 261Q46 392 107 461T286 530Q402 530 462 461T523 261Q523 131 463 62T286 -7ZM285 94Q342 94 368 136T394 262Q394 345 368 387T285 429Q228 429 202 388T175 262Q175 178 201 136T285
94ZM245 573Q225 573 218 577T211 588Q211 593 214 599T223 615L263 689Q269 700 276 706T298 715T340 718Q367 718 379 715T391 701Q391 694 386 685T370 663L314 601Q298 585 283 579T245 573Z" />
<glyph unicode="&#xf4;" horiz-adv-x="569" d="M286 -7Q169 -7 108 62T46 261Q46 392 107 461T286 530Q402 530 462 461T523 261Q523 131 463 62T286 -7ZM285 94Q342 94 368 136T394 262Q394 345 368 387T285 429Q228 429 202 388T175 262Q175 178 201 136T285
94ZM187 573Q153 573 153 588Q153 593 156 599T165 615L208 692Q215 706 228 712T272 718H296Q328 718 341 712T361 692L404 615Q409 606 412 600T416 588Q416 573 381 573Q359 573 348 579T326 598L285 645L244 598Q233 586 222 580T187 573Z" />
<glyph unicode="&#xf5;" horiz-adv-x="569" d="M286 -7Q169 -7 108 62T46 261Q46 392 107 461T286 530Q402 530 462 461T523 261Q523 131 463 62T286 -7ZM285 94Q342 94 368 136T394 262Q394 345 368 387T285 429Q228 429 202 388T175 262Q175 178 201 136T285
94ZM145 585Q140 585 130 588T112 598T104 611Q104 621 109 631Q122 662 146 681T207 700Q232 700 256 693T302 678T343 670Q364 670 374 678T391 694T407 702Q412 702 422 698T440 686T448 672Q448 669 447 665T442 651Q430 626 407 607T342 588Q320 588 296 595T249
611T210 619Q191 619 180 611T162 594T145 585Z" />
<glyph unicode="&#xf6;" horiz-adv-x="569" d="M286 -7Q169 -7 108 62T46 261Q46 392 107 461T286 530Q402 530 462 461T523 261Q523 131 463 62T286 -7ZM285 94Q342 94 368 136T394 262Q394 345 368 387T285 429Q228 429 202 388T175 262Q175 178 201 136T285
94ZM370 587Q341 587 328 594T315 615V676Q315 691 328 698T370 705Q400 705 413 698T426 676V615Q426 601 413 594T370 587ZM200 587Q170 587 157 594T144 615V676Q144 691 157 698T200 705Q229 705 242 698T255 676V615Q255 601 242 594T200 587Z" />
<glyph unicode="&#xf7;" horiz-adv-x="560" d="M63 180Q37 180 37 223V232Q37 275 63 275H497Q523 275 523 232V223Q523 180 497 180H63ZM275 -2Q222 -2 222 27V91Q222 119 275 119H284Q337 119 337 91V27Q337 -2 284 -2H275ZM275 335Q222 335 222 364V428Q222
456 275 456H284Q337 456 337 428V364Q337 335 284 335H275Z" />
<glyph unicode="&#xf8;" horiz-adv-x="569" d="M87 -7Q80 -7 71 -2T55 13T48 29Q48 37 57 47L467 525Q476 536 486 536Q492 536 501 530T518 516T525 500Q525 492 516 481L106 4Q96 -7 87 -7ZM286 -7Q169 -7 108 62T46 261Q46 392 107 461T286 530Q402 530 462
461T523 261Q523 131 463 62T286 -7ZM285 94Q341 94 367 136T394 262Q394 345 368 387T285 429Q228 429 202 388T175 261Q175 178 201 136T285 94Z" />
<glyph unicode="&#xf9;" horiz-adv-x="557" d="M217 -7Q142 -7 104 33T65 155V496Q65 525 118 525H137Q190 525 190 496V172Q190 137 208 118T265 98Q297 98 321 118T361 160V496Q361 525 414 525H434Q487 525 487 496V166Q487 118 490 91T496 50T499 28Q499 20
488 15T461 6T430 1T407 -1Q392 -1 385 10T375 38T368 68Q343 38 304 16T217 -7ZM293 573Q272 573 256 579T225 601L169 663Q158 676 153 685T147 701Q147 711 159 714T198 718Q226 718 240 716T262 707T275 689L315 615Q321 605 324 599T328 588Q328 581 321 577T293
573Z" />
<glyph unicode="&#xfa;" horiz-adv-x="557" d="M217 -7Q142 -7 104 33T65 155V496Q65 525 118 525H137Q190 525 190 496V172Q190 137 208 118T265 98Q297 98 321 118T361 160V496Q361 525 414 525H434Q487 525 487 496V166Q487 118 490 91T496 50T499 28Q499 20
488 15T461 6T430 1T407 -1Q392 -1 385 10T375 38T368 68Q343 38 304 16T217 -7ZM236 573Q216 573 209 577T202 588Q202 593 205 599T214 615L254 689Q261 700 268 706T289 715T331 718Q358 718 370 715T383 701Q383 694 378 685T361 663L305 601Q290 585 274 579T236
573Z" />
<glyph unicode="&#xfb;" horiz-adv-x="557" d="M217 -7Q142 -7 104 33T65 155V496Q65 525 118 525H137Q190 525 190 496V172Q190 137 208 118T265 98Q297 98 321 118T361 160V496Q361 525 414 525H434Q487 525 487 496V166Q487 118 490 91T496 50T499 28Q499 20
488 15T461 6T430 1T407 -1Q392 -1 385 10T375 38T368 68Q343 38 304 16T217 -7ZM179 573Q144 573 144 588Q144 593 147 599T156 615L199 692Q207 706 220 712T264 718H288Q319 718 332 712T352 692L395 615Q400 606 403 600T407 588Q407 573 373 573Q350 573 339
579T317 598L276 645L235 598Q224 586 213 580T179 573Z" />
<glyph unicode="&#xfc;" horiz-adv-x="557" d="M217 -7Q142 -7 104 33T65 155V496Q65 525 118 525H137Q190 525 190 496V172Q190 137 208 118T265 98Q297 98 321 118T361 160V496Q361 525 414 525H434Q487 525 487 496V166Q487 118 490 91T496 50T499 28Q499 20
488 15T461 6T430 1T407 -1Q392 -1 385 10T375 38T368 68Q343 38 304 16T217 -7ZM362 587Q332 587 319 594T306 615V676Q306 691 319 698T362 705Q391 705 404 698T417 676V615Q417 601 404 594T362 587ZM191 587Q161 587 148 594T135 615V676Q135 691 148 698T191
705Q220 705 233 698T247 676V615Q247 601 234 594T191 587Z" />
<glyph unicode="&#xfd;" horiz-adv-x="481" d="M161 -207Q110 -207 110 -187Q110 -184 111 -180T115 -170L202 56V-38L16 488Q15 492 14 496T13 505Q13 525 68 525H91Q111 525 124 521T142 506L216 291Q222 271 230 239T245 177H248Q256 206 264 239T278 291L351
506Q355 517 368 521T402 525H419Q472 525 472 505Q472 498 469 488L230 -186Q226 -197 212 -202T177 -207H161ZM201 573Q181 573 174 577T167 588Q167 593 170 599T179 615L219 689Q225 700 232 706T254 715T296 718Q323 718 335 715T347 701Q347 694 342 685T326
663L270 601Q254 585 239 579T201 573Z" />
<glyph unicode="&#xfe;" horiz-adv-x="573" d="M129 -207Q76 -207 76 -178V725Q76 753 129 753H148Q201 753 201 725V467Q226 497 261 513T336 530Q392 530 435 498T502 406T526 261Q526 136 470 65T318 -7Q279 -7 251 4T201 31V-178Q201 -207 148 -207H129ZM290
95Q344 95 370 137T397 259Q397 340 373 383T302 426Q272 426 247 408T201 363V123Q219 111 241 103T290 95Z" />
<glyph unicode="&#xff;" horiz-adv-x="481" d="M161 -207Q110 -207 110 -187Q110 -184 111 -180T115 -170L202 56V-38L16 488Q15 492 14 496T13 505Q13 525 68 525H91Q111 525 124 521T142 506L216 291Q222 271 230 239T245 177H248Q256 206 264 239T278 291L351
506Q355 517 368 521T402 525H419Q472 525 472 505Q472 498 469 488L230 -186Q226 -197 212 -202T177 -207H161ZM326 587Q297 587 284 594T271 615V676Q271 691 284 698T326 705Q356 705 369 698T382 676V615Q382 601 369 594T326 587ZM156 587Q126 587 113 594T100
615V676Q100 691 113 698T156 705Q185 705 198 698T211 676V615Q211 601 198 594T156 587Z" />
<glyph unicode="&#x2013;" horiz-adv-x="500" d="M70 218Q44 218 44 261V269Q44 312 70 312H430Q456 312 456 269V261Q456 218 430 218H70Z" />
<glyph unicode="&#x2014;" horiz-adv-x="1000" d="M80 218Q54 218 54 261V269Q54 312 80 312H920Q946 312 946 269V261Q946 218 920 218H80Z" />
<glyph unicode="&#x2018;" horiz-adv-x="212" d="M94 491Q68 491 55 501T41 529Q41 572 55 611T89 683T131 733T167 751Q179 751 193 747T207 731Q207 726 205 720T200 706Q188 679 176 639T163 531Q163 513 151 502T110 491H94Z" />
<glyph unicode="&#x2019;" horiz-adv-x="212" d="M56 496Q45 496 31 500T17 516Q17 521 19 528T25 543Q37 570 49 610T61 716Q61 734 73 745T114 756H129Q157 756 169 745T182 717Q182 674 169 635T135 564T93 514T56 496Z" />
<glyph unicode="&#x201a;" horiz-adv-x="198" d="M30 -122Q19 -122 5 -118T-10 -102Q-10 -96 -8 -90T-2 -75Q11 -48 22 -8T34 99Q34 117 47 127T87 138H103Q130 138 143 128T156 100Q156 57 143 18T108 -53T66 -103T30 -122Z" />
<glyph unicode="&#x201c;" horiz-adv-x="350" d="M251 491Q224 491 211 501T198 529Q198 572 211 611T245 683T287 733T324 751Q336 751 349 747T363 731Q363 726 361 720T356 706Q344 679 332 639T320 531Q320 513 307 502T266 491H251ZM87 491Q60 491 47 501T34
529Q34 572 47 611T81 683T123 733T160 751Q172 751 185 747T199 731Q199 726 197 720T192 706Q180 679 168 639T156 531Q156 513 143 502T103 491H87Z" />
<glyph unicode="&#x201d;" horiz-adv-x="350" d="M205 496Q194 496 180 500T166 516Q166 521 168 528T174 543Q186 570 198 610T210 716Q210 734 222 745T263 756H278Q306 756 318 745T331 717Q331 674 318 635T284 564T242 514T205 496ZM41 496Q30 496 16 500T1
516Q1 521 3 528T9 543Q22 570 33 610T45 716Q45 734 58 745T98 756H114Q141 756 154 745T167 717Q167 674 154 635T119 564T77 514T41 496Z" />
<glyph unicode="&#x201e;" horiz-adv-x="350" d="M194 -122Q183 -122 169 -118T154 -102Q154 -97 156 -90T162 -75Q175 -48 186 -8T198 98Q198 116 211 127T251 138H267Q294 138 307 128T320 100Q320 57 307 17T272 -54T230 -104T194 -122ZM29 -122Q18 -122 4
-118T-10 -102Q-10 -97 -8 -90T-2 -75Q10 -48 22 -8T34 98Q34 116 46 127T87 138H102Q130 138 142 128T155 100Q155 57 142 17T108 -54T66 -104T29 -122Z" />
<glyph unicode="&#x2022;" horiz-adv-x="336" d="M168 196Q132 196 103 213T56 260T38 326Q38 362 55 391T102 439T168 457Q204 457 233 439T281 392T299 326Q299 290 281 261T234 214T168 196Z" />
<glyph unicode="&#x2039;" horiz-adv-x="300" d="M199 51Q186 51 174 65L46 220Q31 237 31 258Q31 279 46 296L174 451Q185 464 199 464Q208 464 219 458T240 442T250 421Q250 411 241 399L131 258L241 116Q250 105 250 95Q250 86 242 76T221 59T199 51Z" />
<glyph unicode="&#x203a;" horiz-adv-x="300" d="M101 51Q91 51 79 58T59 76T50 95Q50 105 59 116L169 258L59 399Q50 411 50 421Q50 432 59 441T81 457T101 464Q116 464 126 451L254 296Q269 279 269 258Q269 237 254 220L126 65Q115 51 101 51Z" />
</font>
</defs>
</svg>
