<?xml version="1.0" standalone="no"?>
<!DOCTYPE svg PUBLIC "-//W3C//DTD SVG 1.1//EN" "http://www.w3.org/Graphics/SVG/1.1/DTD/svg11.dtd">
<svg xmlns="http://www.w3.org/2000/svg">
<defs >
<font id="Arsenal" horiz-adv-x="550" ><font-face
    font-family="Arsenal"
    units-per-em="1000"
    panose-1="0 0 8 0 0 0 0 0 0 0"
    ascent="1000"
    descent="-254"
    alphabetic="0" />
<glyph unicode=" " glyph-name="space" horiz-adv-x="255" />
<glyph unicode="!" glyph-name="exclam" horiz-adv-x="333" d="M343 689L235 230H169L191 689L198 750H350L343 689ZM158 145T191 145Q223 145 244 124Q260 105 260 77Q260 57 252 38T227 5Q200 -16 168 -16Q136 -16 116 5Q99 25 99 52Q99 71 108 90T133 124Q158
145 191 145Z" />
<glyph unicode="&quot;" glyph-name="quotedbl" horiz-adv-x="398" d="M174 484H111L137 750L259 746L174 484ZM365 484H302L328 750L450 746L365 484Z" />
<glyph unicode="#" glyph-name="numbersign" horiz-adv-x="518" d="M468 463H538L528 399H445L393 250H508L498 186H370L323 50L272 67L313 186H196L155 69L104 86L139 186H72L81 250H161L213 399H102L111 463H236L283 598L334 582L292 463H410L451 579L503 563L468
463ZM218 250H336L388 399H270L218 250Z" />
<glyph unicode="$" glyph-name="dollar" horiz-adv-x="417" d="M91 178T104 163T140 136T193 123Q234 123 255 145T277 200Q277 226 260 241T205 279Q173 297 153 312T119 351T104 411Q104 477 143 517T245 572L274 700H339L335 576Q361 572 384 564T421 547T439
537L418 470Q413 473 396 483T354 504T307 514Q273 514 254 497T234 451Q234 424 253 407T313 367Q348 347 369 332T406 291T421 231Q421 164 381 119T262 61L237 -50H172L174 59Q130 64 102 79T60 110T46 128L91 180Q91 178 104 163Z" />
<glyph unicode="%" glyph-name="percent" horiz-adv-x="867" d="M453 432T429 378T357 293T247 262Q174 262 136 307T98 428Q98 497 123 551T195 636T304 667Q374 667 413 621T453 499Q453 432 429 378ZM323 -12L260 8L618 635L681 615L323 -12ZM348 605T295 605Q205
605 205 407Q205 325 255 325Q295 325 321 371T348 523Q348 605 295 605ZM859 151T835 97T763 12T653 -19Q580 -19 542 26T504 147Q504 216 529 270T601 355T710 386Q780 386 819 340T859 218Q859 151 835 97ZM754 324T701 324Q611 324 611 126Q611 44 661 44Q701
44 727 90T754 242Q754 324 701 324Z" />
<glyph unicode="&amp;" glyph-name="ampersand" horiz-adv-x="641" d="M541 305L522 167Q517 129 517 111Q517 80 527 69T563 58Q583 58 602 64T621 71L617 13Q617 12 605 6T569 -5T512 -11Q432 -11 406 35Q351 -11 263 -11Q162 -11 111 33T59 150Q59 228 103
274T214 341Q145 382 145 465Q145 524 172 568T249 636T362 660Q392 660 421 653T468 639T492 629L472 564Q468 566 454 573T420 586T381 593Q332 593 305 557T277 447Q277 411 291 391T327 371H434L517 500H569L551 371H662L652 305H541ZM300 305Q258 302 229
261T199 151Q199 107 224 82T295 57Q355 57 392 98V108Q392 121 396 159L415 305H300Z" />
<glyph unicode="&apos;" glyph-name="quotesingle" horiz-adv-x="207" d="M174 484H111L137 750L259 746L174 484Z" />
<glyph unicode="(" glyph-name="parenleft" horiz-adv-x="359" d="M380 656T325 559T243 272Q232 195 232 124Q232 35 248 -26T283 -121T303 -149L245 -183Q245 -190 207 -146T138 -24T107 164Q107 220 115 272Q136 419 192 521T309 682T369 732L421 697Q380 656
325 559Z" />
<glyph unicode=")" glyph-name="parenright" horiz-adv-x="359" d="M14 -156T53 -103T132 46T192 277Q202 351 202 418Q202 508 187 570T152 667T132 697L191 732Q191 739 229 695T297 573T328 385Q328 329 320 277Q299 130 242 28T123 -133T62 -183L14 -149Q14
-156 53 -103Z" />
<glyph unicode="*" glyph-name="asterisk" horiz-adv-x="410" d="M255 534L244 715H368L301 535L450 631L470 502L308 487L414 364L304 284L269 455L185 284L98 364L237 485L80 502L137 631L255 534Z" />
<glyph unicode="+" glyph-name="plus" horiz-adv-x="456" d="M308 312H469L459 238H298L272 53H201L227 238H64L74 312H237L263 496H334L308 312Z" />
<glyph unicode="," glyph-name="comma" horiz-adv-x="265" d="M121 156T149 156Q176 156 194 138L198 132L201 127Q212 107 212 80Q212 21 168 -53T66 -170L38 -133Q75 -103 102 -62T137 18H129Q102 18 85 35Q71 54 71 76Q71 93 78 109T100 138Q121 156 149 156Z" />
<glyph unicode="-" glyph-name="hyphen" horiz-adv-x="333" d="M336 238H65L75 312H346L336 238Z" />
<glyph unicode="." glyph-name="period" horiz-adv-x="297" d="M136 145T168 145Q200 145 221 124Q237 105 237 77Q237 57 229 38T204 5Q177 -16 145 -16Q113 -16 93 5Q76 25 76 52Q76 71 85 90T110 124Q136 145 168 145Z" />
<glyph unicode="/" glyph-name="slash" horiz-adv-x="457" d="M571 750L63 -250H-27L481 750H571Z" />
<glyph unicode="0" glyph-name="zero" horiz-adv-x="579" d="M495 660T541 591T588 418Q588 286 552 189T450 41T296 -11Q189 -11 136 53T82 237Q82 427 149 543T375 660Q495 660 541 591ZM299 591T261 501T222 191Q222 58 305 58Q344 58 377 99T429 226T449 441Q449
513 431 552T366 591Q299 591 261 501Z" />
<glyph unicode="1" glyph-name="one" horiz-adv-x="398" d="M390 650L299 0H168L245 558L139 505L121 565L283 650H390Z" />
<glyph unicode="2" glyph-name="two" horiz-adv-x="484" d="M34 0L49 103Q98 122 173 182T304 326T361 499Q361 547 339 566T273 586Q250 586 222 575T172 553T145 537L142 611Q142 612 169 625T232 649T307 660Q404 660 456 617T508 501Q508 394 419 298T207
125H466L449 0H34Z" />
<glyph unicode="3" glyph-name="three" horiz-adv-x="492" d="M379 524H139L164 650H515L503 566L316 373H323Q394 373 439 331T484 215Q484 144 448 93T354 16T232 -11Q169 -11 128 7T67 45T47 70L91 129Q91 127 109 109T156 76T223 60Q284 60 314 106T345 237Q345
309 284 309Q272 309 259 303T237 289T226 280L192 326L379 524Z" />
<glyph unicode="4" glyph-name="four" horiz-adv-x="533" d="M368 545T300 440T148 228H338L420 552H520L474 228H538L529 171L464 160L442 0H306L328 159H59L60 218Q116 298 180 428T282 666L407 650Q368 545 300 440Z" />
<glyph unicode="5" glyph-name="five" horiz-adv-x="489" d="M245 520L216 401Q247 410 276 410Q372 410 427 368T482 243Q482 160 443 103T343 17T213 -11Q154 -11 114 6T52 44T31 68L78 124Q78 122 95 105T141 74T208 60Q271 60 306 110T342 247Q342 346 255
346Q230 346 209 337T176 315L170 305L124 312L209 650H507L482 520H245Z" />
<glyph unicode="6" glyph-name="six" horiz-adv-x="530" d="M486 557T469 565T428 582T381 590Q323 590 286 543T227 379Q287 421 346 421Q429 421 477 378T526 251Q526 231 523 208Q508 105 441 47T271 -11Q178 -11 127 42T76 206Q76 248 83 292T98 361Q138 516
210 588T377 660Q409 660 440 652T491 634T516 621L490 554Q486 557 469 565ZM275 358T232 311Q221 263 217 219Q213 187 213 155Q213 101 229 78T280 55Q323 55 346 89T380 202Q385 242 385 266Q385 312 370 335T321 358Q275 358 232 311Z" />
<glyph unicode="7" glyph-name="seven" horiz-adv-x="451" d="M437 439T360 284T238 0H94Q139 109 215 229T407 517H108L127 650H527L512 545Q437 439 360 284Z" />
<glyph unicode="8" glyph-name="eight" horiz-adv-x="536" d="M557 438T515 395T409 330Q459 317 493 286T527 197Q527 -11 266 -11Q58 -11 58 141Q58 215 103 260T217 329Q174 344 145 376T115 461Q115 555 183 607T361 660Q447 660 502 621T557 510Q557 438
515 395ZM256 380T304 356Q343 365 379 402T416 521Q416 598 350 598Q305 598 281 556T256 445Q256 380 304 356ZM379 248T363 269T322 300Q284 292 246 256T207 136Q207 51 277 51Q325 51 352 93T379 210Q379 248 363 269Z" />
<glyph unicode="9" glyph-name="nine" horiz-adv-x="530" d="M139 101T155 90T195 69T247 59Q355 59 392 263Q345 223 281 223Q197 223 146 264T94 391Q94 469 125 530T214 625T347 660Q440 660 492 607T545 444Q545 409 541 372T531 314Q454 -11 254 -11Q207
-11 174 0T123 25T104 41L139 102Q139 101 155 90ZM333 286T358 306T394 358Q401 395 405 450Q407 467 407 495Q407 550 391 572T342 594Q292 594 263 537T233 378Q233 286 298 286Q333 286 358 306Z" />
<glyph unicode=":" glyph-name="colon" horiz-adv-x="298" d="M185 496T217 496Q249 496 270 475Q286 456 286 428Q286 408 278 389T253 356Q226 335 194 335Q162 335 142 356Q125 376 125 403Q125 422 134 441T159 475Q185 496 217 496ZM136 145T168 145Q200
145 221 124Q237 105 237 77Q237 57 229 38T204 5Q177 -16 145 -16Q113 -16 93 5Q76 25 76 52Q76 71 85 90T110 124Q136 145 168 145Z" />
<glyph unicode=";" glyph-name="semicolon" horiz-adv-x="297" d="M185 496T217 496Q249 496 270 475Q286 456 286 428Q286 408 278 389T253 356Q226 335 194 335Q162 335 142 356Q125 376 125 403Q125 422 134 441T159 475Q185 496 217 496ZM140 156T168 156Q195
156 213 138L217 132L220 127Q231 107 231 80Q231 21 187 -53T85 -170L57 -133Q94 -103 121 -62T156 18H148Q121 18 104 35Q90 54 90 76Q90 93 97 109T119 138Q140 156 168 156Z" />
<glyph unicode="&lt;" glyph-name="less" horiz-adv-x="378" d="M299 90L92 315L362 541L395 495L209 315L348 136L299 90Z" />
<glyph unicode="=" glyph-name="equal" horiz-adv-x="524" d="M542 335H78L88 409H552L542 335ZM514 141H50L60 215H524L514 141Z" />
<glyph unicode="&gt;" glyph-name="greater" horiz-adv-x="378" d="M168 541L375 315L104 90L72 136L254 315L122 495L168 541Z" />
<glyph unicode="?" glyph-name="question" horiz-adv-x="445" d="M151 722T173 732T230 751T303 760Q389 760 434 713T480 597Q480 543 463 507T420 450T351 402Q312 378 288 359T246 308T226 230L173 226Q175 281 188 317T218 374T263 420Q291 445 306 464T333
517T344 601Q344 646 323 669T263 692Q239 692 216 684T178 668T159 657L151 721Q151 722 173 732ZM165 145T197 145Q229 145 250 124Q266 105 266 77Q266 57 258 38T233 5Q206 -16 174 -16Q142 -16 122 5Q105 25 105 52Q105 71 114 90T139 124Q165 145 197 145Z"
/>
<glyph unicode="@" glyph-name="at" horiz-adv-x="862" d="M581 -18T557 -8T524 26Q483 -19 416 -19Q349 -19 311 22T272 146Q272 221 302 281T382 375T490 409Q544 409 577 374L597 391H654L615 120Q612 96 612 80Q612 56 619 47T641 37Q667 37 695 66T742 168T762
359Q762 473 710 526T548 580Q439 580 357 526T228 363T182 100Q182 -42 245 -111T426 -181Q491 -181 543 -162T627 -119T660 -93L681 -148Q681 -152 647 -178T555 -226T416 -249Q237 -249 151 -160T64 95Q64 254 121 377T290 570T557 640Q710 640 788 567T867
354Q867 236 835 152T747 25T620 -18Q581 -18 557 -8ZM552 321Q538 354 496 354Q445 354 415 298T384 133Q384 83 400 60T450 37Q491 37 518 82L520 96L552 321Z" />
<glyph unicode="A" glyph-name="A" horiz-adv-x="608" d="M479 650L590 0H444L414 182H188L103 0H19L326 650H479ZM356 551L216 245H404L357 551H356Z" />
<glyph unicode="B" glyph-name="B" horiz-adv-x="569" d="M366 650Q471 650 522 609T574 503Q574 445 540 404T455 339Q504 323 532 291T561 210Q561 151 529 103T434 28T280 0H77L168 650H366ZM367 361T388 377T424 424T439 497Q439 542 416 563T354 585H298L266
361H348Q367 361 388 377ZM224 65H286Q347 65 385 107T423 219Q423 262 403 281T347 301H257L224 65Z" />
<glyph unicode="C" glyph-name="C" horiz-adv-x="576" d="M586 536T561 548T500 573T431 585Q338 585 282 503T225 242Q225 151 264 108T375 64Q423 64 460 84T521 127T545 153L581 105Q581 100 553 71T472 15T345 -11Q216 -11 146 60T76 256Q76 373 119 464T240
608T424 660Q470 660 512 648T584 621T614 605L593 532Q586 536 561 548Z" />
<glyph unicode="D" glyph-name="D" horiz-adv-x="647" d="M522 650T592 584T662 387Q662 204 569 102T299 0H77L168 650H389Q522 650 592 584ZM225 71H310Q514 71 514 413Q514 499 481 539T379 579H296L225 71Z" />
<glyph unicode="E" glyph-name="E" horiz-adv-x="524" d="M481 0H77L168 650H558L548 578H296L266 364H489L478 294H257L226 72H491L481 0Z" />
<glyph unicode="F" glyph-name="F" horiz-adv-x="488" d="M476 268H253L215 0H77L168 650H563L553 578H296L263 338H486L476 268Z" />
<glyph unicode="G" glyph-name="G" horiz-adv-x="625" d="M505 0L478 58Q415 -11 313 -11Q198 -11 137 58T76 254Q76 376 119 468T242 610T429 660Q475 660 518 648T591 621T622 605L598 532Q591 536 566 548T505 573T436 585Q225 585 225 242Q225 151 257 108T348
64Q401 64 429 92T469 152L486 275H385L395 343H613L565 0H505Z" />
<glyph unicode="H" glyph-name="H" horiz-adv-x="655" d="M578 0H440L481 296H256L215 0H77L168 650H306L266 366H491L531 650H669L578 0Z" />
<glyph unicode="I" glyph-name="I" horiz-adv-x="293" d="M215 0H77L168 650H306L215 0Z" />
<glyph unicode="J" glyph-name="J" horiz-adv-x="384" d="M41 85T49 79T73 66T108 60Q146 60 170 93T207 214L268 650H407L345 214Q328 90 278 40T137 -11Q98 -11 72 -2T31 17T16 29L39 87Q41 85 49 79Z" />
<glyph unicode="K" glyph-name="K" horiz-adv-x="619" d="M168 650H306L263 348L329 392L556 650H652L419 396L607 0H432L299 292L251 262L215 0H77L168 650Z" />
<glyph unicode="L" glyph-name="L" horiz-adv-x="479" d="M467 0H77L168 650H306L225 72H477L467 0Z" />
<glyph unicode="M" glyph-name="M" horiz-adv-x="856" d="M779 0H644L705 492H703L453 0H350L238 492H235L163 0H77L176 650H343L458 171H462L708 650H863L779 0Z" />
<glyph unicode="N" glyph-name="N" horiz-adv-x="651" d="M574 0H466L225 488H223V430L163 0H77L168 650H311L522 209H525L524 254L579 650H665L574 0Z" />
<glyph unicode="O" glyph-name="O" horiz-adv-x="663" d="M677 272T632 181T509 39T335 -11Q212 -11 144 61T76 259Q76 376 116 467T232 609T416 660Q548 660 612 585T677 392Q677 272 632 181ZM530 497T500 542T409 588Q222 588 222 225Q222 148 253 104T342
60Q427 60 478 146T530 421Q530 497 500 542Z" />
<glyph unicode="P" glyph-name="P" horiz-adv-x="533" d="M367 650Q466 650 520 606T574 471Q574 380 534 320T432 232T308 203H244L215 0H77L168 650H367ZM253 267H301Q357 267 392 318T427 485Q427 538 406 561T346 585H298L253 267Z" />
<glyph unicode="Q" glyph-name="Q" horiz-adv-x="663" d="M677 289T644 207T550 71T414 -1Q457 -132 529 -132Q545 -132 561 -126L559 -187Q526 -198 498 -198Q425 -198 367 -143T285 -7Q184 6 130 76T76 259Q76 376 116 467T232 609T416 660Q548 660 612 585T677
392Q677 289 644 207ZM530 497T500 542T409 588Q222 588 222 225Q222 148 253 104T342 60Q427 60 478 146T530 421Q530 497 500 542Z" />
<glyph unicode="R" glyph-name="R" horiz-adv-x="578" d="M368 650Q467 650 522 606T577 480Q577 404 538 349T435 264L549 0H390L301 236H248L215 0H77L168 650H368ZM257 302H309Q371 302 400 349T430 492Q430 539 409 562T345 585H297L257 302Z" />
<glyph unicode="S" glyph-name="S" horiz-adv-x="492" d="M485 549T467 559T421 580T361 590Q318 590 292 566T265 499Q265 463 288 439T360 383Q400 356 425 335T467 282T485 206Q485 138 451 89T361 15T238 -11Q175 -11 132 9T67 52T44 80L90 138Q90 135 108
116T157 80T232 63Q286 63 313 91T341 162Q341 194 319 216T251 267Q210 293 185 314T141 368T122 447Q122 512 153 560T239 634T362 660Q402 660 435 650T490 628T512 614L490 546Q485 549 467 559Z" />
<glyph unicode="T" glyph-name="T" horiz-adv-x="516" d="M583 578H409L328 0H189L270 578H95L106 650H594L583 578Z" />
<glyph unicode="U" glyph-name="U" horiz-adv-x="614" d="M201 -11T149 39T97 183Q97 211 101 236L159 650H298L244 267Q238 225 238 192Q238 125 262 95T338 65Q405 65 444 114T497 267L551 650H636L578 236Q561 118 496 54T305 -11Q201 -11 149 39Z" />
<glyph unicode="V" glyph-name="V" horiz-adv-x="576" d="M204 0L100 650H246L323 101H326L570 650H657L357 0H204Z" />
<glyph unicode="W" glyph-name="W" horiz-adv-x="873" d="M954 650L693 0H575L506 480H503L302 0H182L100 650H247L298 158H300L502 650H613L682 161H684L866 650H954Z" />
<glyph unicode="X" glyph-name="X" horiz-adv-x="581" d="M254 316L108 650H281L368 417H371L543 650H641L410 350L573 0H401L296 248H294L112 0H8L254 316Z" />
<glyph unicode="Y" glyph-name="Y" horiz-adv-x="523" d="M342 355L524 650H620L370 267L334 0H195L230 251L84 650H239L341 355H342Z" />
<glyph unicode="Z" glyph-name="Z" horiz-adv-x="567" d="M604 590L219 72H531L521 0H42L51 58L437 578H141L151 650H613L604 590Z" />
<glyph unicode="[" glyph-name="bracketleft" horiz-adv-x="386" d="M365 -89H72L185 711H478L468 642H291L198 -21H375L365 -89Z" />
<glyph unicode="\" glyph-name="backslash" horiz-adv-x="457" d="M188 750L413 -250H324L98 750H188Z" />
<glyph unicode="]" glyph-name="bracketright" horiz-adv-x="386" d="M289 -89H-5L5 -21H180L273 642H98L107 710H401L289 -89Z" />
<glyph unicode="^" glyph-name="asciicircum" horiz-adv-x="357" d="M402 531L356 487L261 593L137 487L105 531L276 698L402 531Z" />
<glyph unicode="_" glyph-name="underscore" horiz-adv-x="679" d="M625 -162H7L17 -88H635L625 -162Z" />
<glyph unicode="`" glyph-name="grave" horiz-adv-x="242" d="M174 738L238 591L174 574L63 703L174 738Z" />
<glyph unicode="a" glyph-name="a" horiz-adv-x="542" d="M382 0L366 44H365Q365 41 352 27T309 1T234 -11Q155 -11 107 44T59 195Q59 284 91 356T183 469T317 511Q358 511 382 502T417 483T428 470H432L456 500H554L484 0H382ZM311 67T333 82T365 112L406 395Q386
435 335 435Q271 435 235 370T199 175Q199 67 277 67Q311 67 333 82Z" />
<glyph unicode="b" glyph-name="b" horiz-adv-x="543" d="M297 754L256 463H261Q261 465 274 477T315 499T383 510Q461 510 508 455T555 307Q555 218 524 146T436 31T303 -11Q262 -11 235 -1T193 20T178 34H176L149 0H58L163 746L297 754ZM210 87T226 76T278 65Q342
65 378 130T415 331Q415 433 336 433Q310 433 290 422T257 397T245 381L205 96Q210 87 226 76Z" />
<glyph unicode="c" glyph-name="c" horiz-adv-x="446" d="M459 403T441 413T397 434T352 444Q277 444 240 375T202 172Q202 111 229 84T299 56Q334 56 359 70T399 100T413 118L456 88Q456 83 437 58T377 11T275 -11Q174 -11 117 44T60 202Q60 294 93 364T189 472T337
511Q370 511 402 501T456 479T483 464L464 400Q459 403 441 413Z" />
<glyph unicode="d" glyph-name="d" horiz-adv-x="543" d="M374 0L365 45H364Q364 42 350 28T308 2T236 -11Q154 -11 107 47T59 200Q59 288 90 358T177 469T303 510Q342 510 367 502T403 484T415 472H418L456 746L591 754L485 0H374ZM311 67T335 84T367 112L408
401Q406 404 398 411T374 426T334 434Q267 434 233 370T198 177Q198 118 217 93T277 67Q311 67 335 84Z" />
<glyph unicode="e" glyph-name="e" horiz-adv-x="474" d="M460 71T438 49T375 8T275 -11Q178 -11 119 40T59 195Q59 294 93 365T189 473T327 510Q405 510 450 470T495 370Q495 271 407 241T197 211Q196 197 196 167Q196 107 223 82T301 56Q335 56 361 68T404 94T420
111L460 75Q460 71 438 49ZM269 446T240 401T201 268Q253 268 290 275T351 308T376 383Q376 446 311 446Q269 446 240 401Z" />
<glyph unicode="f" glyph-name="f" horiz-adv-x="344" d="M92 423L101 483L151 497L162 571Q176 662 219 711T347 760Q372 760 395 753T434 737T454 726L429 669Q426 671 415 676T389 687T362 693Q343 693 332 683T311 644T293 556L285 500H410L399 423H274L210
-29Q193 -151 138 -206T1 -261Q-27 -261 -47 -255T-77 -240T-87 -231L-57 -171Q-55 -172 -48 -177T-30 -186T-6 -190Q26 -190 45 -155T77 -29L141 423H92Z" />
<glyph unicode="g" glyph-name="g" horiz-adv-x="461" d="M341 510T376 499L513 498L508 439L457 436Q475 402 475 359Q475 259 414 203T252 147Q214 147 184 156Q161 139 161 117Q161 99 180 90T245 81Q356 81 404 44T453 -62Q453 -152 391 -207T208 -262Q106
-262 53 -221T-1 -108Q-1 -54 22 -21T80 30Q73 51 73 72Q73 139 132 181Q104 201 89 232T73 304Q73 373 104 419T188 487T303 510Q341 510 376 499ZM349 414T334 430T291 446Q251 446 226 410T200 287Q200 208 258 208Q298 208 323 248T349 375Q349 414 334 430ZM159
-36T123 -16Q90 -45 90 -99Q90 -145 123 -169T218 -194Q281 -194 309 -172T337 -104Q337 -68 311 -52T223 -36Q159 -36 123 -16Z" />
<glyph unicode="h" glyph-name="h" horiz-adv-x="533" d="M297 754L256 466H260Q260 466 273 476T320 498T393 510Q530 510 530 382Q530 362 527 339L480 0H347L393 328Q396 352 396 369Q396 402 383 414T339 427Q314 427 293 419T261 403T246 391L191 0H58L163
746L297 754Z" />
<glyph unicode="i" glyph-name="i" horiz-adv-x="249" d="M195 728T227 728Q258 728 276 709Q291 690 291 664Q291 645 283 627T260 594Q235 575 205 575Q173 575 156 595Q140 612 140 640Q140 658 148 676T172 708Q195 728 227 728ZM191 0H58L128 500H261L191 0Z" />
<glyph unicode="j" glyph-name="j" horiz-adv-x="276" d="M222 728T254 728Q285 728 303 709Q318 690 318 664Q318 645 310 627T287 594Q262 575 232 575Q200 575 183 595Q167 612 167 640Q167 658 175 676T199 708Q222 728 254 728ZM287 500L213 -29Q196 -150
141 -205T4 -261Q-25 -261 -44 -255T-74 -240T-84 -231L-54 -171Q-52 -172 -46 -177T-28 -186T-4 -190Q29 -190 48 -155T80 -29L154 500H287Z" />
<glyph unicode="k" glyph-name="k" horiz-adv-x="490" d="M163 746L297 754L231 288L307 335L436 500H518L363 315L480 0H328L249 234L221 218L191 0H58L163 746Z" />
<glyph unicode="l" glyph-name="l" horiz-adv-x="250" d="M191 0H58L163 746L297 754L191 0Z" />
<glyph unicode="m" glyph-name="m" horiz-adv-x="756" d="M235 500L246 455H249Q249 457 268 471T317 498T384 510Q470 510 491 453Q508 470 544 490T637 510Q698 510 726 483T755 397Q755 383 751 349L702 0H569L617 339Q620 362 620 377Q620 407 609 417T576
428Q550 428 531 414T499 385L496 351L447 0H314L361 339Q364 363 364 378Q364 407 354 417T322 428Q282 428 246 392L191 0H58L128 500H235Z" />
<glyph unicode="n" glyph-name="n" horiz-adv-x="534" d="M235 500L247 460H250Q250 462 267 475T317 499T394 510Q462 510 496 479T531 381Q531 362 528 339L481 0H348Q354 47 369 155T394 328Q397 349 397 365Q397 400 383 413T336 427Q304 427 280 414T246
391L191 0H58L128 500H235Z" />
<glyph unicode="o" glyph-name="o" horiz-adv-x="525" d="M535 210T501 139T405 28T260 -11Q167 -11 114 42T60 195Q60 290 92 361T186 472T334 511Q428 511 481 458T535 305Q535 210 501 139ZM262 444T230 374T198 159Q198 55 274 55Q333 55 365 126T397 341Q397
392 379 418T321 444Q262 444 230 374Z" />
<glyph unicode="p" glyph-name="p" horiz-adv-x="543" d="M235 500L247 455H249Q249 457 266 471T313 498T385 511Q462 511 508 457T554 310Q554 219 524 146T439 31T313 -11Q274 -11 249 -3T211 15T198 27H195L156 -250L23 -254L128 500H235ZM204 96Q211 86 227
76T274 65Q339 65 376 126T413 321Q413 381 392 407T331 433Q307 433 288 424T258 403T246 390L245 391L204 96Z" />
<glyph unicode="q" glyph-name="q" horiz-adv-x="543" d="M315 -254L356 36H352Q352 34 339 22T298 0T231 -11Q152 -11 106 44T59 193Q59 283 92 355T182 469T310 511Q347 511 374 502T415 482T430 469H431L465 500H555L449 -250L315 -254ZM332 67T366 108L407
402Q403 411 386 423T338 435Q200 435 200 182Q200 118 220 93T282 67Q332 67 366 108Z" />
<glyph unicode="r" glyph-name="r" horiz-adv-x="353" d="M388 406T360 412T310 418Q268 418 242 360L191 0H58L128 500H222L233 416H236Q236 421 247 445T279 490T334 511Q355 511 382 505T419 497L397 404Q388 406 360 412Z" />
<glyph unicode="s" glyph-name="s" horiz-adv-x="417" d="M81 110T94 95T130 68T183 55Q224 55 245 77T267 132Q267 158 250 173T195 211Q163 229 143 244T109 283T94 343Q94 398 122 436T195 492T294 511Q326 511 356 502T405 482T429 469L408 402Q403 405 386
415T344 436T297 446Q263 446 244 429T224 383Q224 356 243 339T303 299Q338 279 359 264T396 223T411 163Q411 85 357 37T199 -11Q142 -11 106 5T53 38T36 60L81 112Q81 110 94 95Z" />
<glyph unicode="t" glyph-name="t" horiz-adv-x="353" d="M270 423L235 176Q230 144 230 113Q230 83 238 72T267 61Q287 61 301 64T320 70L319 13Q319 12 307 6T272 -5T215 -11Q154 -11 125 14T95 98Q95 118 98 142L137 423H89L98 483L149 496L237 666H304L281
500H391L380 423H270Z" />
<glyph unicode="u" glyph-name="u" horiz-adv-x="534" d="M368 0L355 44H353Q353 42 336 28T287 1T210 -11Q73 -11 73 118Q73 138 76 160L124 500H257L213 188Q209 163 209 139Q209 102 223 87T266 72Q290 72 310 80T342 98T358 110L412 500H545L475 0H368Z" />
<glyph unicode="v" glyph-name="v" horiz-adv-x="478" d="M78 500H239L287 144H291L453 500H540L293 0H182L78 500Z" />
<glyph unicode="w" glyph-name="w" horiz-adv-x="709" d="M768 500L552 0H445L401 326V327H398L260 0H153L80 500H231L258 167H261L402 500H494L552 167H555L682 500H768Z" />
<glyph unicode="x" glyph-name="x" horiz-adv-x="473" d="M343 272L464 0H305L237 187L102 0H9L197 241L87 500H246L304 323L423 500H514L343 272Z" />
<glyph unicode="y" glyph-name="y" horiz-adv-x="488" d="M16 -170T30 -174T61 -179Q107 -179 140 -143T220 -20L81 500H241L314 146L467 500H549L303 -11Q242 -137 189 -199T66 -261Q43 -261 27 -258T2 -251T-9 -246L12 -168Q16 -170 30 -174Z" />
<glyph unicode="z" glyph-name="z" horiz-adv-x="434" d="M468 440L190 68H408L400 0H26L34 60L316 432H106L112 500H477L468 440Z" />
<glyph unicode="{" glyph-name="braceleft" horiz-adv-x="406" d="M141 328Q160 328 183 337T223 366T240 419Q240 438 238 484Q235 520 235 554Q235 619 254 660T326 725T480 748L470 683Q403 683 376 653T349 556Q349 535 351 487Q353 439 353 421Q353 329 268
293Q327 267 327 215Q327 193 319 164T296 95Q279 44 272 19T265 -29Q265 -99 360 -99L351 -165Q242 -165 196 -133T150 -38Q150 -5 159 29T186 108Q188 115 195 136T206 173T210 199Q210 225 184 240T131 255L139 311L141 328Z" />
<glyph unicode="|" glyph-name="bar" horiz-adv-x="342" d="M175 -250H98L239 750H316L175 -250Z" />
<glyph unicode="}" glyph-name="braceright" horiz-adv-x="406" d="M110 -99T136 -69T163 28Q163 49 161 97Q159 145 159 163Q159 255 245 291Q186 317 186 369Q186 391 194 420T217 489Q234 540 241 565T248 613Q248 683 153 683L161 748Q271 748 317 717T363
622Q363 590 354 557T327 476Q314 439 308 420T302 384Q302 358 329 343T382 328L379 311H380L372 255Q353 255 330 246T289 217T272 166Q272 137 275 101Q276 88 277 70T278 28Q278 -36 259 -77T187 -142T33 -165L43 -99Q110 -99 136 -69Z" />
<glyph unicode="~" glyph-name="asciitilde" horiz-adv-x="598" d="M626 356T607 320T551 251T456 219Q412 219 381 235T311 282Q276 310 251 323T193 337Q167 337 148 326T119 302T108 287L70 317Q70 324 89 360T148 427T249 459Q299 459 332 443T409 393Q442
367 465 355T517 342Q541 342 557 352T580 375T588 389L626 363Q626 356 607 320Z" />
<glyph unicode="&#xa0;" glyph-name="uni00A0" horiz-adv-x="255" />
<glyph unicode="&#xa1;" glyph-name="exclamdown" horiz-adv-x="333" d="M202 516T234 516Q266 516 287 495Q303 476 303 448Q303 428 295 409T270 376Q243 355 211 355Q179 355 159 376Q142 396 142 423Q142 442 151 461T176 495Q202 516 234 516ZM61 -189L168
269H235L213 -189L205 -250H52L61 -189Z" />
<glyph unicode="&#xa2;" glyph-name="cent" horiz-adv-x="446" d="M469 473T451 483T407 504T362 514Q287 514 250 445T212 242Q212 181 239 154T309 126Q344 126 369 140T409 170T423 188L466 158Q466 154 449 131T395 85T305 59L281 -50H215L218 66Q147 83 109
135T70 272Q70 395 128 476T289 576L317 700H382L378 578Q406 574 431 564T473 546T493 534L474 470Q469 473 451 483Z" />
<glyph unicode="&#xa3;" glyph-name="sterling" horiz-adv-x="531" d="M282 277Q251 177 202 122H526L509 0H40L58 122H98Q134 144 148 183T165 279L80 286L89 350H167Q167 407 171 454Q178 555 238 607T399 660Q431 660 461 651T512 632T537 619L508 554Q504
557 489 565T454 580T418 588Q389 588 371 578T340 541T320 460Q310 391 300 350H505L495 277H282Z" />
<glyph unicode="&#xa4;" glyph-name="currency" horiz-adv-x="546" d="M486 264T442 204L522 125L464 58L398 159Q350 124 295 124Q238 124 199 163L100 59L59 126L168 207Q151 243 151 287Q151 364 193 424L112 504L171 571L236 469Q283 505 341 505Q396 505
436 467L535 570L575 504L467 424Q486 386 486 342Q486 264 442 204ZM413 381T391 406T329 431Q284 431 254 394T224 294Q224 250 245 225T306 199Q350 199 381 236T413 336Q413 381 391 406Z" />
<glyph unicode="&#xa5;" glyph-name="yen" horiz-adv-x="590" d="M466 355L648 650H744L539 337H633L624 274H498L494 267L486 208H615L606 144H477L458 0H319L339 144H221L231 208H348L354 251L345 274H239L249 337H322L208 650H363L465 355H466Z" />
<glyph unicode="&#xa6;" glyph-name="brokenbar" horiz-adv-x="342" d="M259 350H182L239 750H316L259 350ZM175 -250H98L154 150H231L175 -250Z" />
<glyph unicode="&#xa7;" glyph-name="section" horiz-adv-x="505" d="M102 391T183 447Q173 470 173 496Q173 570 227 615T370 660Q404 660 435 650T489 627T512 613L489 553Q484 556 467 565T425 584T379 593Q339 593 319 573T299 524Q299 496 320 480T387 443Q427
425 452 410T495 367T513 300Q513 246 487 208T425 144Q435 122 435 97Q435 24 381 -22T230 -68Q180 -68 148 -53T100 -20T84 2L119 56Q119 54 131 39T167 12T222 -1Q268 -1 288 18T308 70Q308 94 289 109T229 142Q189 160 164 176T120 220T102 291Q102 391 183
447ZM192 304T217 285T297 242Q331 227 353 215T393 188Q424 215 424 258Q424 287 399 304T321 346Q281 364 259 375T218 403Q192 379 192 337Q192 304 217 285Z" />
<glyph unicode="&#xa8;" glyph-name="dieresis" horiz-adv-x="422" d="M142 721T169 721Q195 721 212 704Q226 685 226 663Q226 626 197 600Q175 582 149 582Q123 582 106 600Q92 617 92 641Q92 658 99 674T120 704Q142 721 169 721ZM328 721T354 721Q379 721
398 704Q412 685 412 663Q412 626 383 600Q361 582 334 582Q307 582 292 600Q278 617 278 641Q278 658 285 674T306 704Q328 721 354 721Z" />
<glyph unicode="&#xa9;" glyph-name="copyright" horiz-adv-x="729" d="M693 156T601 69T361 -19Q234 -19 167 60T99 272Q99 390 142 479T266 618T457 667Q583 667 651 591T720 386Q720 344 715 313Q693 156 601 69ZM658 350T658 377Q658 485 602 548T448 611Q361
611 297 571T197 456T162 278Q162 168 216 103T367 38Q483 38 559 108T653 312Q658 350 658 377ZM518 413T509 421T485 436T454 443Q411 443 384 406T356 289Q356 247 377 222T430 197Q454 197 470 207T495 230T504 244L529 215Q529 210 518 193T478 159T403 143Q364
143 331 162T279 216T259 297Q259 358 285 403T355 472T450 496Q476 496 496 488T529 469T541 457L520 411Q518 413 509 421Z" />
<glyph unicode="&#xaa;" glyph-name="ordfeminine" horiz-adv-x="413" d="M290 343T266 325T190 307Q139 307 112 331T85 397Q85 474 157 509T320 550L321 555Q323 573 323 580Q323 608 310 620T268 633Q244 633 222 624T185 604T168 591L148 626Q148 628 166
643T217 670T298 683Q368 683 404 657T440 575Q440 566 438 546L406 320H315L297 359Q290 343 266 325ZM269 367T281 378T299 401L314 507Q258 500 230 478T202 410Q202 367 245 367Q269 367 281 378Z" />
<glyph unicode="&#xab;" glyph-name="guillemotleft" horiz-adv-x="536" d="M237 248L304 98L265 59L114 250L318 436L347 399L237 248ZM422 248L489 98L450 59L299 250L503 436L532 399L422 248Z" />
<glyph unicode="&#xac;" glyph-name="logicalnot" horiz-adv-x="495" d="M483 279L460 115H393L415 279H89L100 352H493L483 279Z" />
<glyph unicode="&#xad;" glyph-name="uni00AD" horiz-adv-x="358" d="M348 238H77L87 312H358L348 238Z" />
<glyph unicode="&#xae;" glyph-name="registered" horiz-adv-x="669" d="M664 271T575 186T347 100Q268 100 213 136T129 236T101 382Q101 494 143 579T263 712T440 759Q517 759 573 725T659 630T689 487Q689 458 684 420Q664 271 575 186ZM627 447T627 479Q627
582 576 643T432 705Q350 705 289 665T196 552T163 387Q163 284 213 221T355 157Q463 157 534 226T623 419Q627 447 627 479ZM416 584Q528 584 528 502Q528 467 510 441T459 400L497 273H419L387 387H360L344 274H274L311 544L317 584H416ZM365 426H395Q449 426
449 505Q449 543 411 543H382L365 426Z" />
<glyph unicode="&#xaf;" glyph-name="overscore" horiz-adv-x="428" d="M410 624H195L203 682H417L410 624Z" />
<glyph unicode="&#xb0;" glyph-name="degree" horiz-adv-x="421" d="M467 530T443 476T371 391T261 360Q188 360 150 405T112 526Q112 595 137 649T209 734T318 765Q388 765 427 719T467 597Q467 530 443 476ZM362 703T309 703Q219 703 219 505Q219 423 269 423Q309
423 335 469T362 621Q362 703 309 703Z" />
<glyph unicode="&#xb1;" glyph-name="plusminus" horiz-adv-x="524" d="M379 562H540L530 488H369L343 303H272L298 488H135L145 562H308L334 746H405L379 562ZM513 129H49L59 203H523L513 129Z" />
<glyph unicode="&#xb2;" glyph-name="uni00B2" horiz-adv-x="414" d="M68 230L81 325Q126 342 181 384T278 489T319 625Q319 665 305 680T257 695Q241 695 219 686T180 668T158 655L148 712Q154 716 175 727T229 749T293 760Q371 760 410 721T450 620Q450 541
387 471T232 344H415L399 230H68Z" />
<glyph unicode="&#xb3;" glyph-name="uni00B3" horiz-adv-x="413" d="M308 529Q359 528 393 494T428 400Q428 343 398 302T321 240T221 219Q173 219 141 230T93 254T77 269L110 323Q110 322 123 312T159 293T208 284Q255 284 281 317T307 422Q307 472 271 472Q254
472 236 456L230 450L199 492L338 635H161L180 750H461L450 673L308 529Z" />
<glyph unicode="&#xb4;" glyph-name="acute" horiz-adv-x="242" d="M337 699L198 569L142 578L233 730L337 699Z" />
<glyph unicode="&#xb5;" glyph-name="uni00B5" horiz-adv-x="539" d="M373 0L360 44H358Q358 42 341 28T292 1T215 -11Q201 -11 181 -9Q171 -169 160 -250H23L98 283L129 500H262L218 188Q214 163 214 139Q214 102 228 87T271 72Q295 72 315 80T347 98T363 110L417
500H550L480 0H373Z" />
<glyph unicode="&#xb6;" glyph-name="paragraph" horiz-adv-x="640" d="M620 562L541 0H440L519 562H439L360 0H262L294 232Q198 232 147 274T95 406Q95 525 160 587T380 650H695L683 562H620Z" />
<glyph unicode="&#xb7;" glyph-name="middot" horiz-adv-x="297" d="M177 445T210 445Q242 445 263 424Q279 405 279 377Q279 357 271 338T246 305Q219 284 187 284Q154 284 135 305Q118 325 118 352Q118 371 127 390T152 424Q177 445 210 445Z" />
<glyph unicode="&#xb8;" glyph-name="cedilla" horiz-adv-x="249" d="M139 -58Q139 -59 159 -67T197 -92T215 -139Q215 -188 182 -219T85 -251Q52 -251 33 -241T5 -220T-4 -205L26 -176Q27 -178 32 -185T49 -198T76 -205Q136 -205 136 -142Q136 -122 123 -114T96
-102T82 -98L107 -1H151L139 -58Z" />
<glyph unicode="&#xb9;" glyph-name="uni00B9" horiz-adv-x="413" d="M389 750L316 230H196L256 653L173 601L155 669L292 750H389Z" />
<glyph unicode="&#xba;" glyph-name="ordmasculine" horiz-adv-x="439" d="M482 426T424 367T262 307Q180 307 138 347T96 462Q96 564 152 623T315 683Q398 683 440 642T482 527Q482 426 424 367ZM218 631T218 436Q218 357 269 357Q359 357 359 553Q359 631 308
631Q218 631 218 436Z" />
<glyph unicode="&#xbb;" glyph-name="guillemotright" horiz-adv-x="536" d="M156 436L306 245L103 59L72 95L183 246L116 397L156 436ZM341 436L491 245L288 59L257 95L368 246L301 397L341 436Z" />
<glyph unicode="&#xbc;" glyph-name="onequarter" horiz-adv-x="805" d="M389 750L316 230H196L256 653L173 601L155 669L292 750H389ZM269 -40L219 -9L642 596L691 566L269 -40ZM624 185T576 98T476 -59H589L595 -20L659 191H749L714 -59H756L749 -111L705 -123L687
-250H563L580 -124H396L397 -68Q434 -11 470 85T538 284L652 270Q624 185 576 98Z" />
<glyph unicode="&#xbd;" glyph-name="onehalf" horiz-adv-x="843" d="M389 750L316 230H196L256 653L173 601L155 669L292 750H389ZM269 -40L219 -9L642 596L691 566L269 -40ZM437 -250L451 -155Q496 -138 551 -96T647 9T688 145Q688 185 674 200T627 215Q611
215 589 206T549 188T527 175L518 232Q524 236 545 247T599 269T663 280Q740 280 779 241T819 140Q819 61 756 -9T601 -136H785L769 -250H437Z" />
<glyph unicode="&#xbe;" glyph-name="threequarters" horiz-adv-x="847" d="M311 529Q362 528 396 494T431 400Q431 343 401 302T324 240T224 219Q176 219 144 230T96 254T80 269L113 323Q113 322 126 312T162 293T211 284Q258 284 284 317T310 422Q310 472 274
472Q257 472 239 456L233 450L202 492L341 635H164L183 750H464L453 673L311 529ZM311 -40L261 -9L684 596L733 566L311 -40ZM666 185T618 98T518 -59H631L637 -20L701 191H791L756 -59H798L791 -111L747 -123L729 -250H605L622 -124H438L439 -68Q476 -11 512 85T580
284L694 270Q666 185 618 98Z" />
<glyph unicode="&#xbf;" glyph-name="questiondown" horiz-adv-x="445" d="M307 516T339 516Q371 516 392 495Q408 476 408 448Q408 428 400 409T375 376Q348 355 316 355Q284 355 264 376Q247 396 247 423Q247 442 256 461T281 495Q307 516 339 516ZM355 -204T340
-219T295 -247T222 -261Q126 -261 73 -218T19 -91Q19 -35 37 1T83 58T155 104Q195 126 219 143T260 189T280 261L335 265Q333 207 320 172T290 119T245 81Q216 61 200 43T172 -10T160 -105Q160 -193 245 -193Q267 -193 285 -185T313 -167T325 -154L355 -201Q355
-204 340 -219Z" />
<glyph unicode="&#xc0;" glyph-name="Agrave" horiz-adv-x="608" d="M386 873L450 726L386 709L275 838L386 873ZM479 650L590 0H444L414 182H188L103 0H19L326 650H479ZM356 551L216 245H404L357 551H356Z" />
<glyph unicode="&#xc1;" glyph-name="Aacute" horiz-adv-x="608" d="M546 834L407 704L351 713L442 865L546 834ZM479 650L590 0H444L414 182H188L103 0H19L326 650H479ZM356 551L216 245H404L357 551H356Z" />
<glyph unicode="&#xc2;" glyph-name="Acircumflex" horiz-adv-x="608" d="M534 766L500 721L408 806L291 721L269 766L384 888H454L534 766ZM479 650L590 0H444L414 182H188L103 0H19L326 650H479ZM356 551L216 245H404L357 551H356Z" />
<glyph unicode="&#xc3;" glyph-name="Atilde" horiz-adv-x="608" d="M595 802T580 782T538 744T472 726Q450 726 434 732T393 751Q373 762 358 768T323 774Q307 774 293 764T271 743T260 729L229 765Q229 768 247 791T296 835T364 855Q390 855 408 849T450 829Q469
818 481 813T510 808Q526 808 538 815T556 830T564 840L595 805Q595 802 580 782ZM479 650L590 0H444L414 182H188L103 0H19L326 650H479ZM356 551L216 245H404L357 551H356Z" />
<glyph unicode="&#xc4;" glyph-name="Adieresis" horiz-adv-x="608" d="M297 856T324 856Q350 856 367 839Q381 820 381 798Q381 761 352 735Q330 717 304 717Q278 717 261 735Q247 752 247 776Q247 793 254 809T275 839Q297 856 324 856ZM483 856T509 856Q534
856 553 839Q567 820 567 798Q567 761 538 735Q516 717 489 717Q462 717 447 735Q433 752 433 776Q433 793 440 809T461 839Q483 856 509 856ZM479 650L590 0H444L414 182H188L103 0H19L326 650H479ZM356 551L216 245H404L357 551H356Z" />
<glyph unicode="&#xc5;" glyph-name="Aring" horiz-adv-x="608" d="M514 751T481 717T395 683Q352 683 327 707T302 774Q302 831 335 864T421 898Q462 898 488 874T514 807Q514 751 481 717ZM469 829T454 842T416 856Q386 856 367 837T348 780Q348 754 362 740T401
726Q432 726 450 746T469 803Q469 829 454 842ZM479 650L590 0H444L414 182H188L103 0H19L326 650H479ZM356 551L216 245H404L357 551H356Z" />
<glyph unicode="&#xc6;" glyph-name="AE" horiz-adv-x="822" d="M865 650L856 578H604L574 364H796L786 294H564L533 72H799L788 0H385L411 188H201L73 0H-14L439 650H865ZM420 252L466 578H459L244 252H420Z" />
<glyph unicode="&#xc7;" glyph-name="Ccedilla" horiz-adv-x="576" d="M586 536T561 548T500 573T431 585Q338 585 282 503T225 242Q225 151 264 108T375 64Q423 64 460 84T521 127T545 153L581 105Q581 100 553 71T472 15T346 -11L336 -58Q336 -59 356 -67T394
-92T412 -139Q412 -188 379 -219T282 -251Q249 -251 230 -241T202 -220T193 -205L223 -176Q224 -178 229 -185T246 -198T273 -205Q333 -205 333 -142Q333 -122 320 -114T293 -102T279 -98L302 -9Q193 2 135 72T76 256Q76 373 119 464T240 608T424 660Q470 660 512
648T584 621T614 605L593 532Q586 536 561 548Z" />
<glyph unicode="&#xc8;" glyph-name="Egrave" horiz-adv-x="524" d="M369 873L433 726L369 709L258 838L369 873ZM481 0H77L168 650H558L548 578H296L266 364H489L478 294H257L226 72H491L481 0Z" />
<glyph unicode="&#xc9;" glyph-name="Eacute" horiz-adv-x="524" d="M529 834L390 704L334 713L425 865L529 834ZM481 0H77L168 650H558L548 578H296L266 364H489L478 294H257L226 72H491L481 0Z" />
<glyph unicode="&#xca;" glyph-name="Ecircumflex" horiz-adv-x="524" d="M518 766L484 721L392 806L275 721L253 766L368 888H438L518 766ZM481 0H77L168 650H558L548 578H296L266 364H489L478 294H257L226 72H491L481 0Z" />
<glyph unicode="&#xcb;" glyph-name="Edieresis" horiz-adv-x="524" d="M265 856T292 856Q318 856 335 839Q349 820 349 798Q349 761 320 735Q298 717 272 717Q245 717 229 735Q215 752 215 776Q215 793 222 809T243 839Q265 856 292 856ZM451 856T477 856Q502
856 521 839Q535 820 535 798Q535 761 506 735Q484 717 457 717Q430 717 415 735Q401 752 401 776Q401 793 408 809T429 839Q451 856 477 856ZM481 0H77L168 650H558L548 578H296L266 364H489L478 294H257L226 72H491L481 0Z" />
<glyph unicode="&#xcc;" glyph-name="Igrave" horiz-adv-x="293" d="M224 873L288 726L224 709L113 838L224 873ZM215 0H77L168 650H306L215 0Z" />
<glyph unicode="&#xcd;" glyph-name="Iacute" horiz-adv-x="293" d="M384 834L245 704L189 713L280 865L384 834ZM215 0H77L168 650H306L215 0Z" />
<glyph unicode="&#xce;" glyph-name="Icircumflex" horiz-adv-x="293" d="M374 766L340 721L248 806L131 721L109 766L224 888H294L374 766ZM215 0H77L168 650H306L215 0Z" />
<glyph unicode="&#xcf;" glyph-name="Idieresis" horiz-adv-x="293" d="M135 856T162 856Q188 856 205 839Q219 820 219 798Q219 761 190 735Q168 717 142 717Q116 717 99 735Q85 752 85 776Q85 793 92 809T113 839Q135 856 162 856ZM321 856T347 856Q372 856
391 839Q405 820 405 798Q405 761 376 735Q354 717 327 717Q300 717 285 735Q271 752 271 776Q271 793 278 809T299 839Q321 856 347 856ZM215 0H77L168 650H306L215 0Z" />
<glyph unicode="&#xd0;" glyph-name="Eth" horiz-adv-x="658" d="M522 650T592 584T662 387Q662 204 569 102T299 0H77L117 289H62L71 355H126L168 650H389Q522 650 592 584ZM264 355H407L398 289H255L225 71H310Q514 71 514 413Q514 499 481 539T379 579H296L264 355Z" />
<glyph unicode="&#xd1;" glyph-name="Ntilde" horiz-adv-x="651" d="M629 802T614 782T572 744T506 726Q484 726 468 732T427 751Q407 762 392 768T357 774Q341 774 327 764T305 743T294 729L263 765Q263 768 281 791T330 835T398 855Q424 855 442 849T484 829Q503
818 515 813T544 808Q560 808 572 815T590 830T598 840L629 805Q629 802 614 782ZM574 0H466L225 488H223V430L163 0H77L168 650H311L522 209H525L524 254L579 650H665L574 0Z" />
<glyph unicode="&#xd2;" glyph-name="Ograve" horiz-adv-x="663" d="M409 873L473 726L409 709L298 838L409 873ZM677 272T632 181T509 39T335 -11Q212 -11 144 61T76 259Q76 376 116 467T232 609T416 660Q548 660 612 585T677 392Q677 272 632 181ZM530 497T500
542T409 588Q222 588 222 225Q222 148 253 104T342 60Q427 60 478 146T530 421Q530 497 500 542Z" />
<glyph unicode="&#xd3;" glyph-name="Oacute" horiz-adv-x="663" d="M569 834L430 704L374 713L465 865L569 834ZM677 272T632 181T509 39T335 -11Q212 -11 144 61T76 259Q76 376 116 467T232 609T416 660Q548 660 612 585T677 392Q677 272 632 181ZM530 497T500
542T409 588Q222 588 222 225Q222 148 253 104T342 60Q427 60 478 146T530 421Q530 497 500 542Z" />
<glyph unicode="&#xd4;" glyph-name="Ocircumflex" horiz-adv-x="663" d="M559 766L525 721L433 806L316 721L294 766L409 888H479L559 766ZM677 272T632 181T509 39T335 -11Q212 -11 144 61T76 259Q76 376 116 467T232 609T416 660Q548 660 612 585T677 392Q677
272 632 181ZM530 497T500 542T409 588Q222 588 222 225Q222 148 253 104T342 60Q427 60 478 146T530 421Q530 497 500 542Z" />
<glyph unicode="&#xd5;" glyph-name="Otilde" horiz-adv-x="663" d="M618 802T603 782T561 744T495 726Q473 726 457 732T416 751Q396 762 381 768T346 774Q330 774 316 764T294 743T283 729L252 765Q252 768 270 791T319 835T387 855Q413 855 431 849T473 829Q492
818 504 813T533 808Q549 808 561 815T579 830T587 840L618 805Q618 802 603 782ZM677 272T632 181T509 39T335 -11Q212 -11 144 61T76 259Q76 376 116 467T232 609T416 660Q548 660 612 585T677 392Q677 272 632 181ZM530 497T500 542T409 588Q222 588 222 225Q222
148 253 104T342 60Q427 60 478 146T530 421Q530 497 500 542Z" />
<glyph unicode="&#xd6;" glyph-name="Odieresis" horiz-adv-x="663" d="M320 856T347 856Q373 856 390 839Q404 820 404 798Q404 761 375 735Q353 717 327 717Q300 717 284 735Q270 752 270 776Q270 793 277 809T298 839Q320 856 347 856ZM506 856T532 856Q557
856 576 839Q590 820 590 798Q590 761 561 735Q539 717 512 717Q485 717 470 735Q456 752 456 776Q456 793 463 809T484 839Q506 856 532 856ZM677 272T632 181T509 39T335 -11Q212 -11 144 61T76 259Q76 376 116 467T232 609T416 660Q548 660 612 585T677 392Q677
272 632 181ZM530 497T500 542T409 588Q222 588 222 225Q222 148 253 104T342 60Q427 60 478 146T530 421Q530 497 500 542Z" />
<glyph unicode="&#xd7;" glyph-name="multiply" horiz-adv-x="423" d="M307 319L405 191L348 133L249 263L113 133L73 191L207 319L109 448L165 506L265 374L402 506L441 448L307 319Z" />
<glyph unicode="&#xd8;" glyph-name="Oslash" horiz-adv-x="663" d="M677 272T632 181T509 39T335 -11Q281 -11 231 5L168 -107L128 -96L194 22Q136 54 106 114T76 259Q76 376 116 467T232 609T416 660Q485 660 541 636L592 726L632 715L576 616Q627 581 652 523T677
392Q677 272 632 181ZM222 156T246 114L493 551Q462 588 409 588Q222 588 222 225Q222 156 246 114ZM530 470T516 510L274 81Q301 60 342 60Q427 60 478 146T530 421Q530 470 516 510Z" />
<glyph unicode="&#xd9;" glyph-name="Ugrave" horiz-adv-x="614" d="M427 873L491 726L427 709L316 838L427 873ZM201 -11T149 39T97 183Q97 211 101 236L159 650H298L244 267Q238 225 238 192Q238 125 262 95T338 65Q405 65 444 114T497 267L551 650H636L578
236Q561 118 496 54T305 -11Q201 -11 149 39Z" />
<glyph unicode="&#xda;" glyph-name="Uacute" horiz-adv-x="614" d="M556 834L417 704L361 713L452 865L556 834ZM201 -11T149 39T97 183Q97 211 101 236L159 650H298L244 267Q238 225 238 192Q238 125 262 95T338 65Q405 65 444 114T497 267L551 650H636L578
236Q561 118 496 54T305 -11Q201 -11 149 39Z" />
<glyph unicode="&#xdb;" glyph-name="Ucircumflex" horiz-adv-x="614" d="M560 766L526 721L434 806L317 721L295 766L410 888H480L560 766ZM201 -11T149 39T97 183Q97 211 101 236L159 650H298L244 267Q238 225 238 192Q238 125 262 95T338 65Q405 65 444 114T497
267L551 650H636L578 236Q561 118 496 54T305 -11Q201 -11 149 39Z" />
<glyph unicode="&#xdc;" glyph-name="Udieresis" horiz-adv-x="614" d="M320 856T347 856Q373 856 390 839Q404 820 404 798Q404 761 375 735Q353 717 327 717Q300 717 284 735Q270 752 270 776Q270 793 277 809T298 839Q320 856 347 856ZM506 856T532 856Q557
856 576 839Q590 820 590 798Q590 761 561 735Q539 717 512 717Q485 717 470 735Q456 752 456 776Q456 793 463 809T484 839Q506 856 532 856ZM201 -11T149 39T97 183Q97 211 101 236L159 650H298L244 267Q238 225 238 192Q238 125 262 95T338 65Q405 65 444 114T497
267L551 650H636L578 236Q561 118 496 54T305 -11Q201 -11 149 39Z" />
<glyph unicode="&#xdd;" glyph-name="Yacute" horiz-adv-x="523" d="M523 834L384 704L328 713L419 865L523 834ZM342 355L524 650H620L370 267L334 0H195L230 251L84 650H239L341 355H342Z" />
<glyph unicode="&#xde;" glyph-name="Thorn" horiz-adv-x="562" d="M380 560Q479 560 532 515T586 376Q586 281 545 218T443 124T318 93H249L236 0H98L189 650H327L314 560H380ZM258 160H317Q375 160 410 212T446 387Q446 444 426 467T364 491H305L258 160Z" />
<glyph unicode="&#xdf;" glyph-name="germandbls" horiz-adv-x="584" d="M175 646T239 703T406 760Q488 760 534 726T580 631Q580 572 548 535T466 477Q529 458 561 412T594 289Q594 137 530 63T352 -11Q317 -11 295 -6T262 4T251 11L275 74Q276 73 282 70T301
63T331 60Q363 60 391 86T436 169T454 310Q454 376 428 402T340 428L350 500Q350 497 377 510T425 552T447 629Q447 693 389 693Q348 693 326 656T291 524L214 -29Q197 -150 142 -205T4 -261Q-24 -261 -44 -255T-74 -240T-84 -231L-54 -171Q-52 -172 -45 -177T-27
-186T-3 -190Q29 -190 48 -155T81 -29L158 524Q175 646 239 703Z" />
<glyph unicode="&#xe0;" glyph-name="agrave" horiz-adv-x="542" d="M356 738L420 591L356 574L245 703L356 738ZM382 0L366 44H365Q365 41 352 27T309 1T234 -11Q155 -11 107 44T59 195Q59 284 91 356T183 469T317 511Q358 511 382 502T417 483T428 470H432L456
500H554L484 0H382ZM311 67T333 82T365 112L406 395Q386 435 335 435Q271 435 235 370T199 175Q199 67 277 67Q311 67 333 82Z" />
<glyph unicode="&#xe1;" glyph-name="aacute" horiz-adv-x="542" d="M517 699L378 569L322 578L413 730L517 699ZM382 0L366 44H365Q365 41 352 27T309 1T234 -11Q155 -11 107 44T59 195Q59 284 91 356T183 469T317 511Q358 511 382 502T417 483T428 470H432L456
500H554L484 0H382ZM311 67T333 82T365 112L406 395Q386 435 335 435Q271 435 235 370T199 175Q199 67 277 67Q311 67 333 82Z" />
<glyph unicode="&#xe2;" glyph-name="acircumflex" horiz-adv-x="542" d="M507 631L473 586L381 671L264 586L242 631L357 753H427L507 631ZM382 0L366 44H365Q365 41 352 27T309 1T234 -11Q155 -11 107 44T59 195Q59 284 91 356T183 469T317 511Q358 511 382
502T417 483T428 470H432L456 500H554L484 0H382ZM311 67T333 82T365 112L406 395Q386 435 335 435Q271 435 235 370T199 175Q199 67 277 67Q311 67 333 82Z" />
<glyph unicode="&#xe3;" glyph-name="atilde" horiz-adv-x="542" d="M564 667T549 647T507 609T441 591Q419 591 403 597T362 616Q342 627 327 633T292 639Q276 639 262 629T240 608T229 594L198 630Q198 633 216 656T265 700T333 720Q359 720 377 714T419 694Q438
683 450 678T479 673Q495 673 507 680T525 695T533 705L564 670Q564 667 549 647ZM382 0L366 44H365Q365 41 352 27T309 1T234 -11Q155 -11 107 44T59 195Q59 284 91 356T183 469T317 511Q358 511 382 502T417 483T428 470H432L456 500H554L484 0H382ZM311 67T333
82T365 112L406 395Q386 435 335 435Q271 435 235 370T199 175Q199 67 277 67Q311 67 333 82Z" />
<glyph unicode="&#xe4;" glyph-name="adieresis" horiz-adv-x="542" d="M266 721T293 721Q319 721 336 704Q350 685 350 663Q350 626 321 600Q299 582 273 582Q247 582 230 600Q216 617 216 641Q216 658 223 674T244 704Q266 721 293 721ZM452 721T478 721Q503
721 522 704Q536 685 536 663Q536 626 507 600Q485 582 458 582Q431 582 416 600Q402 617 402 641Q402 658 409 674T430 704Q452 721 478 721ZM382 0L366 44H365Q365 41 352 27T309 1T234 -11Q155 -11 107 44T59 195Q59 284 91 356T183 469T317 511Q358 511 382
502T417 483T428 470H432L456 500H554L484 0H382ZM311 67T333 82T365 112L406 395Q386 435 335 435Q271 435 235 370T199 175Q199 67 277 67Q311 67 333 82Z" />
<glyph unicode="&#xe5;" glyph-name="aring" horiz-adv-x="542" d="M485 616T452 582T366 548Q323 548 298 572T273 639Q273 696 306 729T392 763Q433 763 459 739T485 672Q485 616 452 582ZM440 694T425 707T387 721Q357 721 338 702T319 645Q319 619 334 605T372
591Q403 591 421 611T440 668Q440 694 425 707ZM382 0L366 44H365Q365 41 352 27T309 1T234 -11Q155 -11 107 44T59 195Q59 284 91 356T183 469T317 511Q358 511 382 502T417 483T428 470H432L456 500H554L484 0H382ZM311 67T333 82T365 112L406 395Q386 435 335
435Q271 435 235 370T199 175Q199 67 277 67Q311 67 333 82Z" />
<glyph unicode="&#xe6;" glyph-name="ae" horiz-adv-x="757" d="M742 71T720 49T657 8T557 -11Q442 -11 385 56H381Q381 53 367 36T323 4T247 -11Q159 -11 109 44T59 195Q59 285 92 357T188 470T335 511Q376 511 402 501T441 479T454 465H459Q524 510 609 510Q687
510 732 470T777 370Q777 271 689 241T479 211Q478 197 478 167Q478 107 505 82T583 56Q617 56 643 68T686 94T702 111L742 75Q742 71 720 49ZM551 446T522 401T483 268Q535 268 572 275T633 308T658 383Q658 446 593 446Q551 446 522 401ZM307 67T326 77T358 101Q341
141 341 195Q341 323 401 407Q378 435 335 435Q271 435 235 370T199 175Q199 67 282 67Q307 67 326 77Z" />
<glyph unicode="&#xe7;" glyph-name="ccedilla" horiz-adv-x="446" d="M459 403T441 413T397 434T352 444Q277 444 240 375T202 172Q202 111 229 84T299 56Q334 56 359 70T399 100T413 118L456 88Q456 83 437 58T377 11T275 -11H269L259 -58Q259 -59 279 -67T317
-92T335 -139Q335 -188 302 -219T205 -251Q172 -251 153 -241T125 -220T116 -205L146 -176Q147 -178 152 -185T169 -198T196 -205Q256 -205 256 -142Q256 -122 243 -114T216 -102T202 -98L225 -7Q147 6 104 60T60 202Q60 294 93 364T189 472T337 511Q370 511 402
501T456 479T483 464L464 400Q459 403 441 413Z" />
<glyph unicode="&#xe8;" glyph-name="egrave" horiz-adv-x="474" d="M320 738L384 591L320 574L209 703L320 738ZM460 71T438 49T375 8T275 -11Q178 -11 119 40T59 195Q59 294 93 365T189 473T327 510Q405 510 450 470T495 370Q495 271 407 241T197 211Q196 197
196 167Q196 107 223 82T301 56Q335 56 361 68T404 94T420 111L460 75Q460 71 438 49ZM269 446T240 401T201 268Q253 268 290 275T351 308T376 383Q376 446 311 446Q269 446 240 401Z" />
<glyph unicode="&#xe9;" glyph-name="eacute" horiz-adv-x="474" d="M481 699L342 569L286 578L377 730L481 699ZM460 71T438 49T375 8T275 -11Q178 -11 119 40T59 195Q59 294 93 365T189 473T327 510Q405 510 450 470T495 370Q495 271 407 241T197 211Q196 197
196 167Q196 107 223 82T301 56Q335 56 361 68T404 94T420 111L460 75Q460 71 438 49ZM269 446T240 401T201 268Q253 268 290 275T351 308T376 383Q376 446 311 446Q269 446 240 401Z" />
<glyph unicode="&#xea;" glyph-name="ecircumflex" horiz-adv-x="474" d="M472 631L438 586L346 671L229 586L207 631L322 753H392L472 631ZM460 71T438 49T375 8T275 -11Q178 -11 119 40T59 195Q59 294 93 365T189 473T327 510Q405 510 450 470T495 370Q495 271
407 241T197 211Q196 197 196 167Q196 107 223 82T301 56Q335 56 361 68T404 94T420 111L460 75Q460 71 438 49ZM269 446T240 401T201 268Q253 268 290 275T351 308T376 383Q376 446 311 446Q269 446 240 401Z" />
<glyph unicode="&#xeb;" glyph-name="edieresis" horiz-adv-x="474" d="M230 721T257 721Q283 721 300 704Q314 685 314 663Q314 626 285 600Q263 582 237 582Q211 582 194 600Q180 617 180 641Q180 658 187 674T208 704Q230 721 257 721ZM416 721T442 721Q467
721 486 704Q500 685 500 663Q500 626 471 600Q449 582 422 582Q395 582 380 600Q366 617 366 641Q366 658 373 674T394 704Q416 721 442 721ZM460 71T438 49T375 8T275 -11Q178 -11 119 40T59 195Q59 294 93 365T189 473T327 510Q405 510 450 470T495 370Q495
271 407 241T197 211Q196 197 196 167Q196 107 223 82T301 56Q335 56 361 68T404 94T420 111L460 75Q460 71 438 49ZM269 446T240 401T201 268Q253 268 290 275T351 308T376 383Q376 446 311 446Q269 446 240 401Z" />
<glyph unicode="&#xec;" glyph-name="igrave" horiz-adv-x="249" d="M191 738L255 591L191 574L80 703L191 738ZM191 0H58L128 500H261L191 0Z" />
<glyph unicode="&#xed;" glyph-name="iacute" horiz-adv-x="249" d="M352 699L213 569L157 578L248 730L352 699ZM191 0H58L128 500H261L191 0Z" />
<glyph unicode="&#xee;" glyph-name="icircumflex" horiz-adv-x="249" d="M347 631L313 586L221 671L104 586L82 631L197 753H267L347 631ZM191 0H58L128 500H261L191 0Z" />
<glyph unicode="&#xef;" glyph-name="idieresis" horiz-adv-x="249" d="M105 721T132 721Q158 721 175 704Q189 685 189 663Q189 626 160 600Q138 582 112 582Q85 582 69 600Q55 617 55 641Q55 658 62 674T83 704Q105 721 132 721ZM291 721T317 721Q342 721 361
704Q375 685 375 663Q375 626 346 600Q324 582 297 582Q270 582 255 600Q241 617 241 641Q241 658 248 674T269 704Q291 721 317 721ZM191 0H58L128 500H261L191 0Z" />
<glyph unicode="&#xf0;" glyph-name="eth" horiz-adv-x="532" d="M60 300T94 370T187 475T320 510Q366 510 405 489Q389 562 345 626L242 572L229 614L317 660Q294 684 261 709L325 746Q364 725 393 700L477 744L490 702L426 668Q479 609 508 528T538 350Q538
321 535 289Q520 144 450 67T261 -11Q162 -11 111 47T60 196Q60 300 94 370ZM262 445T230 378T197 165Q197 53 274 53Q398 53 398 334Q398 388 379 416T321 445Q262 445 230 378Z" />
<glyph unicode="&#xf1;" glyph-name="ntilde" horiz-adv-x="534" d="M533 667T518 647T476 609T410 591Q388 591 372 597T331 616Q311 627 296 633T261 639Q245 639 231 629T209 608T198 594L167 630Q167 633 185 656T234 700T302 720Q328 720 346 714T388 694Q407
683 419 678T448 673Q464 673 476 680T494 695T502 705L533 670Q533 667 518 647ZM235 500L247 460H250Q250 462 267 475T317 499T394 510Q462 510 496 479T531 381Q531 362 528 339L481 0H348Q354 47 369 155T394 328Q397 349 397 365Q397 400 383 413T336 427Q304
427 280 414T246 391L191 0H58L128 500H235Z" />
<glyph unicode="&#xf2;" glyph-name="ograve" horiz-adv-x="525" d="M319 738L383 591L319 574L208 703L319 738ZM535 210T501 139T405 28T260 -11Q167 -11 114 42T60 195Q60 290 92 361T186 472T334 511Q428 511 481 458T535 305Q535 210 501 139ZM262 444T230
374T198 159Q198 55 274 55Q333 55 365 126T397 341Q397 392 379 418T321 444Q262 444 230 374Z" />
<glyph unicode="&#xf3;" glyph-name="oacute" horiz-adv-x="525" d="M480 699L341 569L285 578L376 730L480 699ZM535 210T501 139T405 28T260 -11Q167 -11 114 42T60 195Q60 290 92 361T186 472T334 511Q428 511 481 458T535 305Q535 210 501 139ZM262 444T230
374T198 159Q198 55 274 55Q333 55 365 126T397 341Q397 392 379 418T321 444Q262 444 230 374Z" />
<glyph unicode="&#xf4;" glyph-name="ocircumflex" horiz-adv-x="525" d="M470 631L436 586L344 671L227 586L205 631L320 753H390L470 631ZM535 210T501 139T405 28T260 -11Q167 -11 114 42T60 195Q60 290 92 361T186 472T334 511Q428 511 481 458T535 305Q535
210 501 139ZM262 444T230 374T198 159Q198 55 274 55Q333 55 365 126T397 341Q397 392 379 418T321 444Q262 444 230 374Z" />
<glyph unicode="&#xf5;" glyph-name="otilde" horiz-adv-x="525" d="M526 667T511 647T469 609T403 591Q381 591 365 597T324 616Q304 627 289 633T254 639Q238 639 224 629T202 608T191 594L160 630Q160 633 178 656T227 700T295 720Q321 720 339 714T381 694Q400
683 412 678T441 673Q457 673 469 680T487 695T495 705L526 670Q526 667 511 647ZM535 210T501 139T405 28T260 -11Q167 -11 114 42T60 195Q60 290 92 361T186 472T334 511Q428 511 481 458T535 305Q535 210 501 139ZM262 444T230 374T198 159Q198 55 274 55Q333
55 365 126T397 341Q397 392 379 418T321 444Q262 444 230 374Z" />
<glyph unicode="&#xf6;" glyph-name="odieresis" horiz-adv-x="525" d="M229 721T256 721Q282 721 299 704Q313 685 313 663Q313 626 284 600Q262 582 236 582Q209 582 193 600Q179 617 179 641Q179 658 186 674T207 704Q229 721 256 721ZM415 721T441 721Q466
721 485 704Q499 685 499 663Q499 626 470 600Q448 582 421 582Q394 582 379 600Q365 617 365 641Q365 658 372 674T393 704Q415 721 441 721ZM535 210T501 139T405 28T260 -11Q167 -11 114 42T60 195Q60 290 92 361T186 472T334 511Q428 511 481 458T535 305Q535
210 501 139ZM262 444T230 374T198 159Q198 55 274 55Q333 55 365 126T397 341Q397 392 379 418T321 444Q262 444 230 374Z" />
<glyph unicode="&#xf7;" glyph-name="divide" horiz-adv-x="524" d="M305 535T337 535Q369 535 390 514Q406 495 406 467Q406 447 398 428T373 395Q346 374 314 374Q282 374 262 395Q245 415 245 442Q245 461 254 480T279 514Q305 535 337 535ZM527 228H63L73
302H537L527 228ZM251 157T284 157Q316 157 337 136Q353 117 353 89Q353 69 345 50T320 17Q293 -4 261 -4Q229 -4 209 17Q192 37 192 64Q192 83 201 102T226 136Q251 157 284 157Z" />
<glyph unicode="&#xf8;" glyph-name="oslash" horiz-adv-x="529" d="M535 210T501 139T405 28T260 -11Q227 -11 197 -3L102 -183L47 -172L146 16Q104 41 82 86T60 195Q60 290 92 361T186 472T334 511Q371 511 403 502L481 650L537 639L453 480Q493 454 514 410T535
305Q535 210 501 139ZM262 444T230 374T198 159Q198 137 201 120L365 431Q347 444 321 444Q262 444 230 374ZM397 353T395 371L233 65Q249 55 274 55Q333 55 365 126T397 341Q397 353 395 371Z" />
<glyph unicode="&#xf9;" glyph-name="ugrave" horiz-adv-x="534" d="M337 738L401 591L337 574L226 703L337 738ZM368 0L355 44H353Q353 42 336 28T287 1T210 -11Q73 -11 73 118Q73 138 76 160L124 500H257L213 188Q209 163 209 139Q209 102 223 87T266 72Q290
72 310 80T342 98T358 110L412 500H545L475 0H368Z" />
<glyph unicode="&#xfa;" glyph-name="uacute" horiz-adv-x="534" d="M498 699L359 569L303 578L394 730L498 699ZM368 0L355 44H353Q353 42 336 28T287 1T210 -11Q73 -11 73 118Q73 138 76 160L124 500H257L213 188Q209 163 209 139Q209 102 223 87T266 72Q290
72 310 80T342 98T358 110L412 500H545L475 0H368Z" />
<glyph unicode="&#xfb;" glyph-name="ucircumflex" horiz-adv-x="534" d="M488 631L454 586L362 671L245 586L223 631L338 753H408L488 631ZM368 0L355 44H353Q353 42 336 28T287 1T210 -11Q73 -11 73 118Q73 138 76 160L124 500H257L213 188Q209 163 209 139Q209
102 223 87T266 72Q290 72 310 80T342 98T358 110L412 500H545L475 0H368Z" />
<glyph unicode="&#xfc;" glyph-name="udieresis" horiz-adv-x="534" d="M247 721T274 721Q300 721 317 704Q331 685 331 663Q331 626 302 600Q280 582 254 582Q227 582 211 600Q197 617 197 641Q197 658 204 674T225 704Q247 721 274 721ZM433 721T459 721Q484
721 503 704Q517 685 517 663Q517 626 488 600Q466 582 439 582Q412 582 397 600Q383 617 383 641Q383 658 390 674T411 704Q433 721 459 721ZM368 0L355 44H353Q353 42 336 28T287 1T210 -11Q73 -11 73 118Q73 138 76 160L124 500H257L213 188Q209 163 209 139Q209
102 223 87T266 72Q290 72 310 80T342 98T358 110L412 500H545L475 0H368Z" />
<glyph unicode="&#xfd;" glyph-name="yacute" horiz-adv-x="488" d="M485 699L346 569L290 578L381 730L485 699ZM16 -170T30 -174T61 -179Q107 -179 140 -143T220 -20L81 500H241L314 146L467 500H549L303 -11Q242 -137 189 -199T66 -261Q43 -261 27 -258T2 -251T-9
-246L12 -168Q16 -170 30 -174Z" />
<glyph unicode="&#xfe;" glyph-name="thorn" horiz-adv-x="541" d="M295 754L254 463H259Q259 465 272 477T313 499T381 510Q459 510 506 455T553 307Q553 218 522 146T434 31T301 -11Q234 -11 192 19L154 -250L21 -254L56 0L161 746L295 754ZM299 433T275 414T243
381L203 96Q208 87 224 76T276 65Q340 65 376 130T413 331Q413 433 334 433Q299 433 275 414Z" />
<glyph unicode="&#xff;" glyph-name="ydieresis" horiz-adv-x="488" d="M234 721T261 721Q287 721 304 704Q318 685 318 663Q318 626 289 600Q267 582 241 582Q215 582 198 600Q184 617 184 641Q184 658 191 674T212 704Q234 721 261 721ZM420 721T446 721Q471
721 490 704Q504 685 504 663Q504 626 475 600Q453 582 426 582Q399 582 384 600Q370 617 370 641Q370 658 377 674T398 704Q420 721 446 721ZM16 -170T30 -174T61 -179Q107 -179 140 -143T220 -20L81 500H241L314 146L467 500H549L303 -11Q242 -137 189 -199T66
-261Q43 -261 27 -258T2 -251T-9 -246L12 -168Q16 -170 30 -174Z" />
<glyph unicode="&#x2013;" glyph-name="endash" horiz-adv-x="524" d="M528 238H64L74 312H538L528 238Z" />
<glyph unicode="&#x2014;" glyph-name="emdash" horiz-adv-x="678" d="M682 238H64L74 312H692L682 238Z" />
<glyph unicode="&#x2018;" glyph-name="quoteleft" horiz-adv-x="181" d="M180 432T153 432Q124 432 108 450Q90 471 90 507Q90 566 134 640T236 758L265 721Q227 691 200 650T165 570H170Q200 570 217 553Q231 536 231 512Q231 495 224 479T203 450Q180 432 153 432Z" />
<glyph unicode="&#x2019;" glyph-name="quoteright" horiz-adv-x="180" d="M163 757T191 757Q219 757 237 739Q255 717 255 682Q255 622 211 548T108 431L79 468Q117 498 144 539T179 618H172Q143 618 127 636Q113 651 113 677Q113 694 120 710T141 739Q163 757 191 757Z" />
<glyph unicode="&#x201a;" glyph-name="quotesinglbase" horiz-adv-x="180" d="M78 156T107 156Q134 156 152 138Q170 117 170 81Q170 22 126 -53T24 -170L-5 -133Q33 -103 60 -62T95 18H87Q59 18 42 35Q28 54 28 76Q28 93 35 109T57 138Q78 156 107 156Z" />
<glyph unicode="&#x201c;" glyph-name="quotedblleft" horiz-adv-x="368" d="M180 432T153 432Q124 432 108 450Q90 471 90 507Q90 566 134 640T236 758L265 721Q227 691 200 650T165 570H170Q200 570 217 553Q231 536 231 512Q231 495 224 479T203 450Q180 432
153 432ZM368 432T340 432Q311 432 295 450Q277 471 277 507Q277 566 321 640T423 758L452 721Q414 691 387 650T352 570H357Q387 570 404 553Q418 536 418 512Q418 495 411 479T390 450Q368 432 340 432Z" />
<glyph unicode="&#x201d;" glyph-name="quotedblright" horiz-adv-x="368" d="M163 757T191 757Q219 757 237 739Q255 717 255 682Q255 622 211 548T108 431L79 468Q117 498 144 539T179 618H172Q143 618 127 636Q113 651 113 677Q113 694 120 710T141 739Q163
757 191 757ZM351 757T378 757Q406 757 424 739Q442 717 442 682Q442 622 398 548T295 431L266 468Q304 498 331 539T366 618H359Q331 618 314 636Q300 651 300 677Q300 694 307 710T328 739Q351 757 378 757Z" />
<glyph unicode="&#x201e;" glyph-name="quotedblbase" horiz-adv-x="368" d="M78 156T107 156Q134 156 152 138Q170 117 170 81Q170 22 126 -53T24 -170L-5 -133Q33 -103 60 -62T95 18H87Q59 18 42 35Q28 54 28 76Q28 93 35 109T57 138Q78 156 107 156ZM265 156T294
156Q321 156 339 138Q357 117 357 81Q357 22 313 -53T211 -170L182 -133Q220 -103 247 -62T282 18H274Q246 18 229 35Q215 54 215 76Q215 93 222 109T244 138Q265 156 294 156Z" />
<glyph unicode="&#x2022;" glyph-name="bullet" horiz-adv-x="380" d="M194 454T246 454Q296 454 327 423Q352 392 352 349Q352 318 339 289T300 237Q260 205 211 205Q187 205 166 213T130 237Q105 266 105 310Q105 340 118 370T156 423Q194 454 246 454Z" />
<glyph unicode="&#x2039;" glyph-name="guilsinglleft" horiz-adv-x="352" d="M237 248L304 98L265 59L114 250L318 436L347 399L237 248Z" />
<glyph unicode="&#x203a;" glyph-name="guilsinglright" horiz-adv-x="352" d="M156 436L306 245L103 59L72 95L183 246L116 397L156 436Z" />
</font>
</defs>
</svg>
