<?xml version="1.0" standalone="no"?>
<!DOCTYPE svg PUBLIC "-//W3C//DTD SVG 1.1//EN" "http://www.w3.org/Graphics/SVG/1.1/DTD/svg11.dtd">
<svg xmlns="http://www.w3.org/2000/svg">
<defs >
<font id="Armata" horiz-adv-x="1244" ><font-face
    font-family="Armata"
    units-per-em="2048"
    panose-1="2 11 5 3 4 5 0 6 2 4"
    ascent="2000"
    descent="-560"
    alphabetic="0" />
<glyph unicode=" " glyph-name="space" horiz-adv-x="511" />
<glyph unicode="!" glyph-name="exclam" horiz-adv-x="512" d="M164 1530H352L328 412H197L164 1530ZM158 22T153 47T148 112T153 177T172 216Q196 242 248 242T322 237T358 216Q381 191 381 113Q381 35 363 14Q335 -19 265 -19Q195 -19 177 1Z" />
<glyph unicode="&quot;" glyph-name="quotedbl" horiz-adv-x="1026" d="M213 1805H399L378 1193H234L213 1805ZM626 1805H812L791 1193H647L626 1805Z" />
<glyph unicode="#" glyph-name="numbersign" horiz-adv-x="1532" d="M356 391H133V507H385L494 936H242V1052H523L615 1414H757L665 1052H1042L1134 1414H1276L1183 1052H1398V936H1153L1044 507H1289V391H1014L927 48H788L875 391H497L410 48H269L356 391ZM904
507L1013 936H635L526 507H904Z" />
<glyph unicode="$" glyph-name="dollar" horiz-adv-x="1194" d="M976 1324Q782 1408 623 1408H614Q424 1408 353 1339Q294 1282 294 1138V1134Q294 981 384 930Q445 897 602 872T837 830T968 772Q1080 688 1080 453V429Q1080 117 837 34Q762 9 672 2V-270H522V2Q257
18 85 121L151 261Q378 141 595 141Q847 141 890 302Q904 355 904 424V453Q904 523 894 566T852 636Q800 681 606 711Q433 738 367 762T259 814T186 886Q124 976 124 1109T151 1319T229 1444Q326 1535 522 1548V1799H672V1548Q883 1539 1028 1476L976 1324Z" />
<glyph unicode="%" glyph-name="percent" horiz-adv-x="1875" d="M413 772Q311 772 244 793T138 862Q69 944 69 1158Q69 1372 140 1454Q218 1545 426 1545Q632 1545 704 1454Q765 1376 765 1164Q765 946 690 860Q613 772 413 772ZM1275 1530H1437L577 0H417L1275
1530ZM281 917T319 905T415 892T511 904T570 948Q609 1007 609 1178Q609 1323 572 1374Q535 1426 425 1426Q305 1426 263 1374Q222 1323 222 1207T230 1036T259 949ZM1106 367Q1106 582 1177 664Q1255 755 1463 755Q1669 755 1740 664Q1802 586 1802 373Q1802 156
1728 70Q1650 -18 1452 -18Q1250 -18 1175 72Q1106 154 1106 367ZM1259 380Q1259 301 1267 246T1296 159Q1335 102 1454 102Q1569 102 1606 158Q1646 217 1646 387Q1646 533 1610 584Q1572 636 1462 636Q1342 636 1300 584Q1259 533 1259 380Z" />
<glyph unicode="&amp;" glyph-name="ampersand" horiz-adv-x="1703" d="M1058 127Q872 -19 625 -19Q435 -19 340 67Q231 166 231 384Q231 581 290 675Q340 755 474 813Q386 856 353 901Q285 992 285 1149Q285 1548 743 1548Q962 1548 1143 1474L1090 1328Q994
1378 846 1403Q792 1412 726 1412T606 1402T518 1360Q454 1303 454 1126Q454 923 614 876Q662 862 715 862H1037L1080 1126H1196V862H1490Q1494 834 1494 798Q1494 761 1490 733H1196V306Q1196 188 1207 161T1236 125T1286 116Q1382 116 1491 169L1538 52Q1416
-19 1252 -19Q1167 -19 1119 20T1058 127ZM460 661T433 602T405 447T415 288T452 187Q503 113 648 113Q872 113 1037 253V733H712Q569 733 515 697Z" />
<glyph unicode="&apos;" glyph-name="quotesingle" horiz-adv-x="513" d="M163 1805H349L328 1193H184L163 1805Z" />
<glyph unicode="(" glyph-name="parenleft" horiz-adv-x="851" d="M634 1857Q422 1518 367 1055Q293 428 539 -37Q586 -126 650 -211L545 -289Q424 -168 326 62Q196 368 196 754Q196 1299 383 1699Q445 1832 523 1930L634 1857Z" />
<glyph unicode=")" glyph-name="parenright" horiz-adv-x="852" d="M213 -216Q425 123 480 586Q554 1213 308 1678Q261 1767 197 1852L302 1930Q423 1809 521 1579Q651 1273 651 887Q651 342 464 -58Q402 -191 324 -289L213 -216Z" />
<glyph unicode="*" glyph-name="asterisk" horiz-adv-x="1195" d="M282 953L501 1281L109 1259V1419L502 1392L270 1717L421 1801L596 1448L773 1806L914 1723L695 1390L1087 1417V1257L695 1280L917 960L775 876L600 1226L425 869L282 953Z" />
<glyph unicode="+" glyph-name="plus" horiz-adv-x="1533" d="M180 806H694V1320H836V806H1351V673H836V138H694V673H180V806Z" />
<glyph unicode="," glyph-name="comma" horiz-adv-x="512" d="M203 240Q227 242 248 242H287Q317 242 334 234T352 207Q352 182 344 147L213 -376H81L171 238L203 240Z" />
<glyph unicode="-" glyph-name="hyphen" horiz-adv-x="1026" d="M177 713H848V568H177V713Z" />
<glyph unicode="." glyph-name="period" horiz-adv-x="512" d="M149 22T144 47T139 112T144 177T164 216Q187 242 239 242T313 237T349 216Q372 191 372 113Q372 35 354 14Q326 -19 256 -19Q186 -19 168 1Z" />
<glyph unicode="/" glyph-name="slash" horiz-adv-x="854" d="M689 1826H838L155 -114H10L689 1826Z" />
<glyph unicode="0" glyph-name="zero" horiz-adv-x="1534" d="M733 -20Q382 -20 287 204Q231 335 227 550Q225 651 225 764V824Q225 1092 247 1197T302 1363T392 1466Q505 1550 733 1550H795Q1038 1550 1154 1468Q1298 1365 1308 1043Q1311 943 1311 824V764Q1311
486 1293 379T1242 201T1152 82Q1033 -20 795 -20H733ZM793 129Q901 129 967 153T1071 237T1122 399T1135 659V824Q1135 977 1129 1086T1092 1264T993 1365T805 1398H721Q504 1398 445 1262Q408 1175 404 1050T400 824V659Q400 355 464 246Q534 129 733 129H793Z"
/>
<glyph unicode="1" glyph-name="one" horiz-adv-x="858" d="M362 1387L120 1358L106 1496L532 1550V0H362V1387Z" />
<glyph unicode="2" glyph-name="two" horiz-adv-x="1196" d="M805 1191Q805 1405 570 1405Q447 1405 296 1336Q253 1316 221 1294L155 1433Q261 1515 468 1543Q526 1551 607 1551T768 1526T896 1454Q989 1368 989 1210Q989 1032 862 820Q757 647 611 466L346 146H1008V0H146L134
129Q209 210 287 304Q552 635 677 824Q805 1025 805 1191Z" />
<glyph unicode="3" glyph-name="three" horiz-adv-x="1195" d="M1008 459L1007 416Q1000 180 852 72Q727 -20 511 -20Q278 -20 98 60L146 210Q352 125 564 125Q825 125 825 438V455Q825 709 640 733Q586 740 530 740T422 737L323 731L310 861Q499 908 629 1003Q770
1106 769 1212T711 1363T527 1407Q356 1407 198 1324L146 1472Q302 1546 543 1550Q739 1552 846 1464Q945 1381 947 1238Q950 1027 728 918Q662 886 589 859L591 850Q826 854 919 761Q1008 672 1008 459Z" />
<glyph unicode="4" glyph-name="four" horiz-adv-x="1366" d="M141 499L752 1530H1029V527H1203V397L1029 382V0H861V382H141V499ZM861 527L860 1408L346 527H861Z" />
<glyph unicode="5" glyph-name="five" horiz-adv-x="1196" d="M167 206Q370 124 576 124Q731 124 792 222Q848 310 848 512Q848 690 790 764Q729 841 579 841Q508 841 421 830T224 807V1530H981V1385H386V950L500 968Q559 977 656 977T826 946T942 858Q1018 758
1022 549V498Q1022 216 902 95Q787 -20 539 -20Q308 -20 118 59L167 206Z" />
<glyph unicode="6" glyph-name="six" horiz-adv-x="1366" d="M1080 1336Q905 1407 707 1407Q625 1407 565 1392T465 1330Q386 1234 390 958L391 851Q507 929 676 956Q734 965 809 965T948 950T1055 906T1125 839T1164 752Q1186 676 1186 536V442Q1186 241 1110
133Q1003 -20 721 -20Q450 -20 333 88Q218 195 218 433V961Q219 1109 240 1219T320 1404Q436 1550 754 1550Q941 1550 1072 1512Q1110 1501 1130 1489L1080 1336ZM391 483Q391 285 439 215Q498 128 682 128H739Q904 128 962 202Q1013 267 1013 443V500Q1013 697
968 756Q943 790 898 802T783 814H755Q548 814 391 724V483Z" />
<glyph unicode="7" glyph-name="seven" horiz-adv-x="1024" d="M944 1397Q645 800 388 0H212Q334 373 441 638L620 1066L765 1385H78V1530H944V1397Z" />
<glyph unicode="8" glyph-name="eight" horiz-adv-x="1366" d="M203 439Q203 633 364 738Q425 778 517 810Q278 884 237 1068Q224 1126 224 1194V1208Q224 1389 356 1474Q473 1550 687 1550H701Q928 1550 1030 1476Q1141 1396 1141 1211V1195Q1141 993 985 892Q932
857 860 828Q1027 769 1096 679Q1168 586 1168 428V370Q1168 43 863 -6Q772 -20 671 -20T484 -5T336 52Q203 144 203 370V439ZM701 890Q871 947 930 1022Q982 1088 982 1211Q982 1329 904 1372Q841 1407 728 1407T557 1399T462 1368Q383 1320 383 1190Q383 1063
450 1005Q506 956 701 890ZM370 371Q370 170 535 136Q587 126 651 126H719Q860 126 923 172Q1000 228 1000 371V436Q1000 562 925 628Q857 689 682 745Q495 685 432 622Q370 559 370 436V371Z" />
<glyph unicode="9" glyph-name="nine" horiz-adv-x="1366" d="M285 201Q471 124 658 124Q742 124 802 139T902 201Q977 291 975 572L974 679Q801 565 571 565Q324 565 240 691Q192 764 183 880Q179 935 179 994V1088Q179 1289 254 1397Q362 1550 644 1550Q915
1550 1032 1442Q1147 1335 1147 1097V569Q1146 421 1125 311T1048 126Q936 -20 631 -20Q444 -20 296 30Q257 43 236 54L285 201ZM610 715Q762 715 905 772Q945 788 974 805V1047Q974 1245 926 1315Q867 1402 683 1402H626Q461 1402 403 1328Q352 1263 352 1087V1029Q352
832 396 773Q422 739 466 727T582 715H610Z" />
<glyph unicode=":" glyph-name="colon" horiz-adv-x="512" d="M254 813Q186 813 168 833Q140 864 140 921T145 1003T164 1041Q189 1066 238 1066T309 1061T344 1041Q367 1016 367 941Q367 865 349 845Q320 813 254 813ZM150 20T145 45T140 108T145 170T164 209Q189
234 238 234T309 229T344 209Q367 184 367 128T362 46T344 6Q321 -19 254 -19Q186 -19 168 0Z" />
<glyph unicode=";" glyph-name="semicolon" horiz-adv-x="512" d="M257 813Q189 813 171 833Q143 864 143 921T148 1003T168 1041Q192 1066 241 1066T312 1061T347 1041Q370 1016 370 941Q370 865 352 845Q323 813 257 813ZM203 240Q227 242 248 242H287Q317 242
334 234T352 207Q352 182 344 147L213 -376H81L171 238L203 240Z" />
<glyph unicode="&lt;" glyph-name="less" horiz-adv-x="1374" d="M1133 1071L318 634L1133 217L1074 96L160 567V705L1073 1194L1133 1071Z" />
<glyph unicode="=" glyph-name="equal" horiz-adv-x="1364" d="M189 937H1173V807H189V937ZM189 544H1173V413H189V544Z" />
<glyph unicode="&gt;" glyph-name="greater" horiz-adv-x="1374" d="M220 219L1035 656L220 1073L279 1194L1193 723V585L280 96L220 219Z" />
<glyph unicode="?" glyph-name="question" horiz-adv-x="1024" d="M338 563Q331 619 369 657L623 919Q683 983 695 1017Q710 1062 710 1110T709 1180T704 1217Q697 1245 678 1258T618 1288T515 1324Q368 1369 201 1389L234 1559Q531 1518 724 1423Q844 1363 867
1280Q879 1237 879 1168T875 1061T861 990T831 929T783 866T711 794L503 604L481 412H358L338 563ZM318 22T313 47T308 112T313 177T332 216Q356 242 408 242T482 237T518 216Q541 191 541 113Q541 35 523 14Q495 -19 425 -19Q355 -19 337 1Z" />
<glyph unicode="@" glyph-name="at" horiz-adv-x="1877" d="M1677 7L1734 -127Q1507 -243 1168 -278Q1073 -287 998 -287Q567 -287 390 -80Q219 122 219 606Q219 1127 424 1324Q553 1448 766 1479Q870 1494 992 1494T1221 1481T1404 1426Q1570 1335 1570 1084V641Q1570
420 1590 204L1448 191L1421 341Q1212 175 974 175Q622 175 622 611Q622 948 837 1006Q901 1024 974 1024Q1199 1024 1411 942V1084Q1411 1244 1314 1302Q1222 1357 971 1357Q770 1357 654 1305Q443 1210 391 886Q372 768 372 592T404 272T508 34Q652 -153 980
-153T1677 7ZM1407 819Q1187 878 998 878Q866 878 822 797Q792 740 792 602T842 395T1010 326Q1225 326 1413 471Q1410 521 1409 597L1408 722Q1407 771 1407 819Z" />
<glyph unicode="A" glyph-name="A" horiz-adv-x="1364" d="M550 1530H783L1318 0H1137L985 449H369L225 0H49L550 1530ZM937 592L667 1395L636 1281L415 592H937Z" />
<glyph unicode="B" glyph-name="B" horiz-adv-x="1364" d="M1170 1138Q1170 830 937 799V796Q1081 785 1152 714Q1234 630 1234 471T1198 223T1096 86Q985 0 747 0H236V1525Q513 1551 693 1551T957 1524T1088 1444Q1170 1353 1170 1138ZM631 847Q832 847 910 904Q999
968 999 1142V1163Q999 1297 940 1354Q881 1410 739 1410Q620 1410 537 1405L406 1397V847H631ZM768 142Q915 142 978 198Q1057 269 1057 452Q1057 664 902 700Q855 711 800 711H406V142H768Z" />
<glyph unicode="C" glyph-name="C" horiz-adv-x="1194" d="M771 124Q934 124 1099 187L1143 49Q1067 11 960 -4T771 -20H757Q401 -20 280 184Q206 308 190 518Q183 619 183 739T189 967T216 1166T274 1328T376 1448Q506 1550 754 1550Q914 1550 1011 1530T1143
1496L1098 1338Q903 1406 765 1406T552 1373T435 1262Q362 1130 362 759V685Q362 380 441 259Q529 124 762 124H771Z" />
<glyph unicode="D" glyph-name="D" horiz-adv-x="1534" d="M236 1521Q236 1521 386 1532Q611 1550 745 1550T959 1540T1099 1504T1202 1434T1272 1322Q1323 1195 1323 944V789Q1323 492 1279 338Q1228 160 1096 82Q960 0 697 0H236V1521ZM1049 1344T981 1373T772
1402T406 1385V143H724Q910 143 1000 204Q1088 263 1118 407Q1144 525 1144 789V945Q1144 1194 1085 1287Q1049 1344 981 1373Z" />
<glyph unicode="E" glyph-name="E" horiz-adv-x="1195" d="M236 1530H1103V1382H406V854H968V707H406V147H1130V0H236V1530Z" />
<glyph unicode="F" glyph-name="F" horiz-adv-x="1191" d="M236 1530H1115V1382H406V781H1021V634H406V0H236V1530Z" />
<glyph unicode="G" glyph-name="G" horiz-adv-x="1364" d="M1165 1322Q924 1406 702 1406Q473 1406 404 1218Q363 1107 359 966T354 721V622Q354 303 461 199Q525 137 632 126Q682 120 735 120T837 125T932 140Q1023 158 1068 180V652H759V790H1235V105Q1141 34
902 -6Q819 -20 713 -20T519 1T369 64T269 168T210 311Q176 447 176 646T183 961T210 1170T268 1335T365 1454Q487 1550 713 1550Q971 1550 1154 1493L1205 1477L1165 1322Z" />
<glyph unicode="H" glyph-name="H" horiz-adv-x="1534" d="M236 1530H406V839H1129V1530H1298V0H1129V694H406V0H236V1530Z" />
<glyph unicode="I" glyph-name="I" horiz-adv-x="683" d="M257 1530H426V0H257V1530Z" />
<glyph unicode="J" glyph-name="J" horiz-adv-x="853" d="M32 182Q32 182 55 171Q164 119 286 119Q392 119 436 185Q478 249 478 404V1530H646V516Q646 329 631 252T592 128T528 48Q446 -20 286 -20Q148 -20 27 30Q-2 42 -17 51L32 182Z" />
<glyph unicode="K" glyph-name="K" horiz-adv-x="1364" d="M453 688L406 687V0H236V1530H406V812Q462 812 479 820T519 845T587 913T683 1031Q818 1214 875 1299L968 1441Q1004 1498 1022 1531H1220Q1211 1511 1185 1470Q1098 1336 1046 1264L854 1005L767 898Q678
792 649 781V772L680 760Q749 734 857 591L1297 0H1080L759 454Q598 680 486 687Q470 688 453 688Z" />
<glyph unicode="L" glyph-name="L" horiz-adv-x="1026" d="M235 1530H405V147H1011V0H235V1530Z" />
<glyph unicode="M" glyph-name="M" horiz-adv-x="2051" d="M362 1530H623L971 400L1030 156L1087 401L1423 1530H1672L1919 0H1749L1563 1156L1535 1426L1474 1154L1129 1H932L572 1160L501 1426L467 1158L298 0H126L362 1530Z" />
<glyph unicode="N" glyph-name="N" horiz-adv-x="1536" d="M236 1530H371L1075 418L1166 229L1144 439V1530H1299V0H1156L457 1109L369 1281L391 1077V0H236V1530Z" />
<glyph unicode="O" glyph-name="O" horiz-adv-x="1534" d="M739 -20Q383 -20 269 204Q202 334 190 551Q185 653 185 773T192 1000T219 1195T277 1348T376 1460Q502 1550 739 1550H801Q1172 1550 1276 1350Q1341 1225 1349 1002Q1353 893 1353 772T1347 548T1322
358T1267 201T1168 82Q1040 -20 801 -20H739ZM799 124Q909 124 981 148T1096 232Q1174 343 1174 658V766Q1174 917 1166 1035T1123 1234Q1051 1402 811 1402H727Q483 1402 415 1245Q372 1145 368 1009T364 766V658Q364 363 452 242Q537 124 739 124H799Z" />
<glyph unicode="P" glyph-name="P" horiz-adv-x="1364" d="M833 480Q792 478 690 478T406 505V0H236V1524Q527 1551 815 1551Q1057 1551 1154 1442Q1236 1350 1236 1138V1020Q1236 856 1200 740Q1123 498 833 480ZM822 1407Q548 1407 406 1396V646Q581 623 717
623T913 642T1006 708Q1062 786 1062 1018V1142Q1062 1285 1006 1346Q952 1407 822 1407Z" />
<glyph unicode="Q" glyph-name="Q" horiz-adv-x="1534" d="M822 -19L801 -20H739Q383 -20 269 204Q202 334 190 551Q185 653 185 773T192 1000T219 1195T277 1348T376 1460Q502 1550 739 1550H801Q1172 1550 1276 1350Q1341 1225 1349 1002Q1353 893 1353 753T1342
482T1290 251Q1204 37 958 -7Q1077 -151 1291 -313L1164 -447Q919 -240 822 -19ZM799 124Q909 124 981 148T1096 232Q1174 343 1174 658V766Q1174 917 1166 1035T1123 1234Q1051 1402 811 1402H727Q483 1402 415 1245Q372 1145 368 1009T364 766V658Q364 363 452
242Q537 124 739 124H799Z" />
<glyph unicode="R" glyph-name="R" horiz-adv-x="1366" d="M236 1525Q561 1550 782 1550H802Q1043 1550 1140 1442Q1221 1349 1221 1138Q1221 868 1144 736Q1065 602 882 568Q916 526 949 480L1008 395L1271 0H1071L841 362Q745 508 699 555H688Q617 556 551 558L406
564V0H236V1525ZM406 699Q511 694 736 694Q921 694 988 798Q1045 889 1045 1116Q1045 1307 960 1366Q910 1401 851 1405T747 1409T661 1409T578 1407T495 1404L406 1398V699Z" />
<glyph unicode="S" glyph-name="S" horiz-adv-x="1194" d="M151 241Q378 121 595 121Q847 121 890 282Q904 335 904 404V443Q904 513 894 556T852 626Q800 671 606 701Q433 728 367 752T259 804T186 876Q124 966 124 1125V1135Q124 1465 398 1530Q485 1550 595
1550H608Q865 1550 1028 1476L976 1323Q779 1408 613 1408H604Q421 1408 352 1339Q294 1281 294 1138V1134Q294 971 384 920Q445 887 602 862T837 820T968 762Q1080 678 1080 443V430Q1080 71 791 2Q702 -20 623 -20T480 -15T348 5Q191 37 85 101L151 241Z" />
<glyph unicode="T" glyph-name="T" horiz-adv-x="1024" d="M420 1382H12V1530H1012V1382H590V0H420V1382Z" />
<glyph unicode="U" glyph-name="U" horiz-adv-x="1534" d="M214 1530H382V712Q382 470 403 382T451 250T523 178Q606 127 751 127T970 152T1084 242T1139 421T1153 712V1530H1321V718Q1321 461 1302 364T1250 198T1155 82Q1027 -20 773 -20Q395 -20 285 196Q224
317 217 516Q214 607 214 705V1530Z" />
<glyph unicode="V" glyph-name="V" horiz-adv-x="1366" d="M66 1530H250L636 365L688 160L745 365L1122 1530H1304L789 -1H592L66 1530Z" />
<glyph unicode="W" glyph-name="W" horiz-adv-x="2044" d="M34 1530H218L514 374L566 130L624 374L932 1530H1131L1498 122L1551 378L1833 1530H2013L1621 0H1367L1074 1094L1029 1352L982 1094L680 0H446L34 1530Z" />
<glyph unicode="X" glyph-name="X" horiz-adv-x="1360" d="M555 782L68 1530H262L658 897L1045 1530H1240L763 786L1293 0H1090L661 661L259 0H68L555 782Z" />
<glyph unicode="Y" glyph-name="Y" horiz-adv-x="1194" d="M512 565L13 1530H199L526 873L600 704L673 876L993 1530H1181L682 565L681 0H513L512 565Z" />
<glyph unicode="Z" glyph-name="Z" horiz-adv-x="1194" d="M106 85L871 1387H158V1530H1080V1442L318 141H1074V0H106V85Z" />
<glyph unicode="[" glyph-name="bracketleft" horiz-adv-x="851" d="M380 1795V-158L627 -159V-272H230V1909H627V1795H380Z" />
<glyph unicode="\" glyph-name="backslash" horiz-adv-x="854" d="M686 -73H835L152 1867H7L686 -73Z" />
<glyph unicode="]" glyph-name="bracketright" horiz-adv-x="852" d="M463 -156V1797L216 1798V1911H613V-270H216V-156H463Z" />
<glyph unicode="^" glyph-name="asciicircum" horiz-adv-x="1229" d="M150 816L538 1569H676L1079 816L944 778L605 1411L281 778L150 816Z" />
<glyph unicode="_" glyph-name="underscore" horiz-adv-x="854" d="M861 -185V-303H-7V-185H861Z" />
<glyph unicode="`" glyph-name="grave" horiz-adv-x="510" d="M9 1714L134 1839L459 1486L376 1399L9 1714Z" />
<glyph unicode="a" glyph-name="a" horiz-adv-x="1364" d="M1134 422Q1134 223 1153 8L1005 -4L980 135Q853 33 644 -7Q576 -20 523 -20T430 -15T352 4T282 45T226 114Q175 205 175 332T193 530T255 648Q340 741 541 741T970 665V795Q970 1012 791 1052Q733 1065
658 1065Q487 1065 303 997L266 1141Q317 1175 526 1202Q592 1210 684 1210T866 1188T1014 1116Q1134 1017 1134 795V422ZM966 540Q732 599 534 599Q412 599 372 529Q345 480 345 384T355 245T390 174Q437 121 545 121Q714 121 880 208Q931 234 972 266Q966 374
966 540Z" />
<glyph unicode="b" glyph-name="b" horiz-adv-x="1364" d="M379 111L358 0H217V1702L383 1718V1076Q590 1210 783 1210Q1051 1210 1123 1045Q1168 941 1174 753Q1176 662 1176 553V473Q1176 336 1159 267T1114 149T1040 62Q938 -20 748 -20T379 111ZM383 242Q595
127 740 127H752Q923 127 972 222Q998 270 1004 347T1010 532V676Q1010 899 959 976Q909 1053 769 1053H744Q619 1053 454 979Q411 960 383 944V242Z" />
<glyph unicode="c" glyph-name="c" horiz-adv-x="1196" d="M1050 53Q911 -20 669 -20Q526 -20 459 2Q288 60 235 199Q198 296 192 408T186 597T190 747T209 889T257 1015T344 1118Q463 1210 686 1210Q850 1210 988 1162Q1025 1150 1044 1139L994 991Q802 1065
680 1065T500 1037T410 952Q356 854 356 592Q356 487 363 401T398 252Q457 124 641 124T1000 188L1050 53Z" />
<glyph unicode="d" glyph-name="d" horiz-adv-x="1364" d="M996 133Q785 -20 567 -20Q326 -20 246 157Q200 257 195 368T189 564T190 735T203 894T237 1025T305 1125Q396 1210 605 1210T984 1137V1702L1150 1718V547Q1150 202 1169 8L1020 -4L996 133ZM984 1000Q804
1060 636 1060Q514 1060 475 1040T416 988T382 900Q359 795 359 554V532Q359 307 408 221Q461 130 605 130H620Q758 130 914 218Q957 242 988 266V268Q983 361 983 555L984 1000Z" />
<glyph unicode="e" glyph-name="e" horiz-adv-x="1364" d="M1155 63Q948 -20 698 -20Q553 -20 452 10Q291 56 238 200Q189 335 189 600V651Q189 968 321 1096Q440 1210 718 1210Q989 1210 1088 1076Q1136 1011 1151 919T1167 742Q1167 611 1161 539Q1020 533 908
533Q908 533 747 533Q495 533 359 555Q359 325 417 234Q488 123 700 123T1106 206L1155 63ZM998 672V768Q998 925 937 992Q869 1067 702 1067Q502 1067 429 980Q359 897 359 672H998Z" />
<glyph unicode="f" glyph-name="f" horiz-adv-x="854" d="M507 1576T467 1543T427 1411T464 1190H747V1051H462V0H301V1051H102V1174L299 1190Q286 1217 274 1307T262 1436Q262 1720 594 1720Q714 1720 821 1694L791 1545Q661 1576 584 1576Z" />
<glyph unicode="g" glyph-name="g" horiz-adv-x="1364" d="M989 1108L1005 1190H1149L1150 22Q1150 -235 1049 -352Q941 -476 684 -476Q484 -476 329 -422Q290 -409 269 -398L321 -257Q339 -263 374 -276T458 -303Q582 -336 685 -336T845 -315T932 -250Q984 -176
984 19V114Q793 -20 580 -20Q331 -20 248 157Q200 257 192 410Q189 480 189 564T190 735T203 894T237 1025T305 1125Q396 1210 585 1210T989 1108ZM984 970Q804 1060 636 1060Q514 1060 475 1040T416 988T382 900Q359 795 359 554V532Q359 310 414 221Q469 130
615 130H630Q768 130 912 206Q953 227 984 249V970Z" />
<glyph unicode="h" glyph-name="h" horiz-adv-x="1364" d="M785 1055Q586 1055 390 940V0H224V1702L386 1718V1067Q489 1155 654 1194Q720 1210 810 1210T968 1190T1076 1124Q1148 1043 1148 829V0H980V799Q980 943 952 984T886 1040T785 1055Z" />
<glyph unicode="i" glyph-name="i" horiz-adv-x="683" d="M342 1475Q275 1475 256 1494Q226 1525 226 1579T232 1657T252 1694Q276 1718 325 1718T396 1713T432 1694Q456 1670 456 1616T451 1538T432 1500Q407 1475 342 1475ZM261 1190H425V0H263L261 1190Z" />
<glyph unicode="j" glyph-name="j" horiz-adv-x="683" d="M339 1475Q272 1475 253 1494Q223 1525 223 1579T229 1657T250 1694Q273 1718 322 1718T393 1713T428 1694Q453 1670 453 1616T448 1538T428 1500Q404 1475 339 1475ZM53 -317Q144 -340 185 -336T243 -302T260
-208V1190H421V-193Q421 -326 378 -392Q325 -475 194 -475Q71 -475 8 -440L53 -317Z" />
<glyph unicode="k" glyph-name="k" horiz-adv-x="1192" d="M220 1698L386 1716V684Q426 676 482 725T583 818T674 916Q843 1111 896 1190H1094Q1072 1140 993 1048L859 897Q750 780 685 724T598 660V650L628 635Q693 604 798 470L1171 0H961L707 333Q531 563 438
571L416 573Q406 574 398 574T386 573V0H220V1698Z" />
<glyph unicode="l" glyph-name="l" horiz-adv-x="683" d="M259 1700L424 1714V0H261L259 1700Z" />
<glyph unicode="m" glyph-name="m" horiz-adv-x="2047" d="M747 1054Q584 1054 391 939V0H225V1190H371L387 1067Q562 1210 779 1210Q903 1210 974 1175T1078 1058Q1299 1210 1498 1210Q1686 1210 1759 1124Q1829 1041 1829 829V0H1661V798Q1661 942 1633 983T1567
1039T1477 1054T1380 1045T1287 1019Q1192 986 1105 935Q1110 875 1110 829V0H942V798Q942 942 914 983T848 1039T747 1054Z" />
<glyph unicode="n" glyph-name="n" horiz-adv-x="1364" d="M786 1054Q591 1054 389 939V0H223V1190H369L385 1067Q494 1156 656 1194Q722 1210 811 1210T968 1190T1076 1124Q1149 1043 1149 829V0H981V798Q981 942 953 983T887 1039T786 1054Z" />
<glyph unicode="o" glyph-name="o" horiz-adv-x="1363" d="M188 592Q188 819 211 909T267 1051T358 1139Q472 1210 695 1210Q1017 1210 1109 1051Q1164 955 1172 780Q1175 697 1175 597T1169 411T1143 255T1090 135T1000 48Q890 -20 679 -20Q363 -20 264 136Q203
233 193 408Q188 492 188 592ZM496 148T550 135T699 121T858 148T955 234T996 389T1005 610T998 820T960 959Q900 1067 693 1067Q474 1067 408 959Q375 904 366 819T357 634T359 465T372 340T403 243T460 175Z" />
<glyph unicode="p" glyph-name="p" horiz-adv-x="1364" d="M383 71V-455H217V1190H352L371 1067Q488 1155 676 1196Q744 1210 824 1210T965 1189T1067 1131T1129 1041T1162 928Q1176 844 1176 660V637Q1176 403 1160 313T1118 165T1046 65Q951 -20 752 -20T383
71ZM383 208Q553 130 740 130Q862 130 918 175Q994 237 1003 464Q1006 539 1006 636V658Q1006 888 966 966Q921 1055 780 1055H765Q618 1055 460 982Q414 961 383 939V208Z" />
<glyph unicode="q" glyph-name="q" horiz-adv-x="1364" d="M984 114Q793 -20 580 -20Q331 -20 248 157Q200 257 192 410Q189 480 189 564T190 735T203 894T237 1025T305 1125Q396 1210 585 1210T989 1108L1005 1190H1149L1150 -455H984V114ZM984 970Q804 1060
636 1060Q514 1060 475 1040T416 988T382 900Q359 795 359 554V532Q359 310 414 221Q469 130 615 130H630Q768 130 912 206Q953 227 984 249V970Z" />
<glyph unicode="r" glyph-name="r" horiz-adv-x="854" d="M650 1045Q522 1045 389 917V0H223V1190H369L385 1032Q432 1105 486 1146T576 1196Q626 1210 671 1210T784 1192L769 1033Q718 1045 650 1045Z" />
<glyph unicode="s" glyph-name="s" horiz-adv-x="1194" d="M225 236Q431 121 639 121Q812 121 842 244Q852 286 852 346T838 440T791 490T704 515T565 537T411 570T292 622Q188 695 192 868V893Q192 1075 312 1152Q428 1228 695 1204Q877 1187 985 1141L938 990Q818
1041 650 1064Q598 1071 553 1071T470 1064T408 1038Q360 999 358 893Q355 768 428 734Q498 701 594 689T751 667T862 641T948 590Q1023 519 1021 343Q1016 36 765 -7Q689 -20 613 -20T474 -11T352 16Q242 47 153 98L225 236Z" />
<glyph unicode="t" glyph-name="t" horiz-adv-x="854" d="M809 57Q646 -20 508 -20Q258 -20 224 194Q216 245 216 342V1051H72V1174L216 1190L242 1462H381V1190H728V1051H381V345Q381 222 399 188Q432 126 531 126T752 187L809 57Z" />
<glyph unicode="u" glyph-name="u" horiz-adv-x="1364" d="M1123 524Q1123 194 1142 8L993 -4L969 137Q852 40 696 -3Q634 -20 549 -20T396 0T288 66Q215 147 215 361V1190H383V388Q383 244 411 203T477 147T569 132T671 140T771 165Q876 199 961 258V259Q957
335 957 555V1190H1123V524Z" />
<glyph unicode="v" glyph-name="v" horiz-adv-x="1193" d="M82 1190H261L573 219L603 120L631 219L929 1190H1110L708 0H490L82 1190Z" />
<glyph unicode="w" glyph-name="w" horiz-adv-x="1875" d="M93 1190H271L523 316L568 125L601 285L861 1190H1025L1281 316L1325 123L1357 286L1605 1190H1785L1433 0H1214L986 763L940 997L899 763L672 0H463L93 1190Z" />
<glyph unicode="x" glyph-name="x" horiz-adv-x="1193" d="M482 603L100 1190H294L590 709L891 1190H1082L694 608L1105 0H913L589 495L271 0H88L482 603Z" />
<glyph unicode="y" glyph-name="y" horiz-adv-x="1192" d="M197 -288Q270 -314 316 -314T377 -312T407 -301Q442 -282 459 -239Q501 -137 532 -15L73 1190H258L568 313L615 159L658 314L932 1190H1106L604 -282Q549 -454 350 -454Q224 -454 152 -418L197 -288Z" />
<glyph unicode="z" glyph-name="z" horiz-adv-x="1024" d="M106 113L715 1052H93V1190H917V1077L310 139H942V0H106V113Z" />
<glyph unicode="{" glyph-name="braceleft" horiz-adv-x="851" d="M654 1896Q590 1911 525 1911Q381 1911 320 1850Q261 1789 261 1644V1109Q261 1022 218 987Q175 952 21 916V758Q171 723 207 692T252 632T261 559V-2Q261 -147 320 -208Q381 -269 516 -269Q590
-269 654 -254L638 -138Q574 -147 536 -147T476 -141T439 -120Q411 -92 411 -21V567Q411 674 379 717Q313 805 149 837Q382 883 405 1024Q411 1065 411 1107V1663Q411 1734 433 1756Q466 1789 520 1789T638 1780L654 1896Z" />
<glyph unicode="|" glyph-name="bar" horiz-adv-x="854" d="M352 2000H502V-178H352V2000Z" />
<glyph unicode="}" glyph-name="braceright" horiz-adv-x="852" d="M189 1896Q253 1911 318 1911Q462 1911 523 1850Q582 1789 582 1644V1109Q582 1022 625 987Q668 952 822 916V758Q672 723 636 692T591 632T582 559V-2Q582 -147 523 -208Q462 -269 327 -269Q253
-269 189 -254L205 -138Q269 -147 307 -147T367 -141T404 -120Q432 -92 432 -21V567Q432 674 464 717Q530 805 694 837Q461 883 438 1024Q432 1065 432 1107V1663Q432 1734 410 1756Q377 1789 323 1789T205 1780L189 1896Z" />
<glyph unicode="~" glyph-name="asciitilde" horiz-adv-x="1535" d="M530 631Q388 631 255 445L156 528Q234 680 351 746Q433 793 508 793T626 780T709 748T784 705T855 662Q937 617 1003 617Q1146 617 1279 803L1378 720Q1242 454 1001 454Q889 454 751 542Q664
598 618 614T530 631Z" />
<glyph unicode="&#xa0;" glyph-name="nbspace" horiz-adv-x="683" />
<glyph unicode="&#xa1;" glyph-name="exclamdown" horiz-adv-x="512" d="M356 -339H168L192 779H323L356 -339ZM362 1169T367 1144T372 1079T367 1014T348 975Q324 949 272 949T198 954T162 975Q139 1000 139 1078Q139 1156 157 1177Q185 1210 255 1210Q325 1210
343 1190Z" />
<glyph unicode="&#xa2;" glyph-name="cent" horiz-adv-x="1202" d="M1022 219Q895 154 686 146V-168H546V149Q352 165 255 281Q174 367 162 553Q158 614 158 679T161 803T176 918T213 1024T282 1114Q374 1199 546 1220V1540H686V1225Q905 1217 1016 1155L966 1007Q774
1081 652 1081T472 1058T382 984Q328 901 328 678Q328 533 341 478T376 389T434 334Q508 290 653 290T969 354L1022 219Z" />
<glyph unicode="&#xa3;" glyph-name="sterling" horiz-adv-x="1194" d="M404 839Q280 999 280 1180Q280 1445 529 1520Q616 1547 699 1547T835 1542T941 1528Q1057 1507 1143 1472L1088 1322Q993 1372 892 1389T724 1407T605 1395T519 1354Q456 1299 456 1157Q456
1021 538 896Q561 861 585 839H1020V694H585L498 147H1143V0H201V146H334L420 694H201V839H404Z" />
<glyph unicode="&#xa4;" glyph-name="currency" horiz-adv-x="1533" d="M1166 733Q1166 522 1094 427L1319 203L1231 116L996 350Q910 310 763 310T530 349L300 118L213 205L434 423Q366 513 366 731T427 1034L211 1250L298 1338L525 1111L523 1109Q611 1148 770
1148T1012 1114L1237 1340L1322 1255L1108 1041Q1145 990 1155 913T1166 733ZM768 426Q851 426 903 441T986 494Q1036 557 1036 751Q1036 920 984 974Q932 1031 775 1031Q607 1031 550 974Q495 918 495 748Q495 562 550 494Q605 426 768 426Z" />
<glyph unicode="&#xa5;" glyph-name="yen" horiz-adv-x="1194" d="M128 818H440L65 1530H249L604 818H606L951 1530H1138L766 818H1073V683H128V818ZM128 502H1073V367H682V0H511V367H128V502Z" />
<glyph unicode="&#xa6;" glyph-name="brokenbar" horiz-adv-x="854" d="M352 2000H502V1068H352V2000ZM352 754H502V-178H352V754Z" />
<glyph unicode="&#xa7;" glyph-name="section" horiz-adv-x="1229" d="M192 1232Q192 1549 557 1549H571Q822 1549 985 1480L938 1329Q818 1380 650 1403Q598 1410 553 1410T470 1403T408 1376Q358 1338 358 1232V1224Q358 1106 429 1074T594 1030T748 1007T859
982T945 932Q1021 862 1021 693V682Q1021 538 944 458Q911 423 888 408Q1021 348 1021 135V124Q1021 -183 766 -226Q689 -239 613 -239T474 -230T352 -204Q242 -172 153 -121L225 17Q431 -98 639 -98Q812 -98 842 26Q852 67 852 127T838 221T791 270T704 293T567
315L520 323Q469 329 423 345Q306 375 254 436Q192 507 192 639V674Q192 816 288 886Q313 905 358 931Q232 979 203 1094Q192 1138 192 1197V1232ZM497 895Q358 860 358 666Q358 545 429 508Q496 473 594 462T754 441Q835 476 848 600Q852 638 852 692T838 780T791
833T704 860L497 895Z" />
<glyph unicode="&#xa8;" glyph-name="dieresis" horiz-adv-x="1139" d="M799 1481Q736 1481 718 1499Q690 1528 690 1580T696 1654T714 1690Q737 1712 783 1712T851 1707T884 1690Q908 1666 908 1615T903 1541T884 1504Q863 1481 799 1481ZM341 1481Q278 1481
260 1499Q232 1528 232 1580T238 1654T256 1690Q279 1712 325 1712T392 1707T426 1690Q448 1667 448 1615T443 1541T426 1504Q404 1481 341 1481Z" />
<glyph unicode="&#xa9;" glyph-name="copyright" horiz-adv-x="1707" d="M197 668Q193 750 193 845T197 1032T220 1201T280 1340T392 1443Q543 1530 845 1530Q1164 1530 1312 1454Q1447 1384 1487 1223Q1513 1118 1513 930T1510 656T1487 497T1428 364T1313 262Q1159
173 847 173Q411 173 280 376Q206 491 197 668ZM319 680T340 577T420 410T581 320T825 292T1051 303T1196 338T1293 404T1350 504Q1386 608 1386 782T1379 1048T1352 1205T1295 1310T1198 1372Q1095 1411 849 1411Q617 1411 515 1373Q401 1330 358 1206Q319 1093
319 887ZM1133 545Q1012 490 854 490Q688 490 616 571Q539 656 539 854Q539 1016 598 1098Q679 1212 891 1212Q1039 1212 1143 1160L1093 1036Q1004 1086 884 1086Q765 1086 726 1036Q691 990 691 849Q691 719 712 681T767 628T896 613T1096 655L1133 545Z" />
<glyph unicode="&#xaa;" glyph-name="ordfeminine" horiz-adv-x="1024" d="M857 959Q857 810 872 647L732 639L713 742Q621 667 466 638Q417 628 370 628T278 637T196 676Q114 743 114 916Q114 1146 265 1200Q319 1220 396 1220Q547 1220 705 1159V1237Q705 1388
575 1412Q533 1419 479 1419Q357 1419 212 1368L182 1496Q227 1522 328 1536T500 1550T641 1533T760 1478Q857 1403 857 1237V959ZM702 1054Q551 1095 406 1095Q319 1095 292 1042Q273 1004 273 933T280 832T304 784Q335 750 394 750T492 758T569 780Q645 807 707
854Q702 949 702 1054Z" />
<glyph unicode="&#xab;" glyph-name="guillemotleft" horiz-adv-x="1533" d="M336 584L727 182L644 89L169 516V648L634 1082L725 996L336 584ZM945 584L1336 182L1253 89L778 516V648L1243 1082L1334 996L945 584Z" />
<glyph unicode="&#xac;" glyph-name="logicalnot" horiz-adv-x="1364" d="M168 897H1196V385H1067V775H168V897Z" />
<glyph unicode="&#xad;" glyph-name="uni00AD" horiz-adv-x="1229" />
<glyph unicode="&#xae;" glyph-name="registered" horiz-adv-x="1707" d="M197 668Q193 750 193 845T197 1032T220 1201T280 1340T392 1443Q543 1530 845 1530Q1164 1530 1312 1454Q1447 1384 1487 1223Q1513 1118 1513 930T1510 656T1487 497T1428 364T1313 262Q1159
173 847 173Q411 173 280 376Q206 491 197 668ZM319 680T340 577T420 410T581 320T826 292T1053 303T1199 339T1295 405T1352 508Q1386 612 1386 788T1379 1054T1351 1208T1293 1311T1196 1373Q1094 1411 849 1411Q617 1411 515 1373Q401 1330 358 1206Q319 1093
319 887ZM559 1190Q772 1205 882 1205T1043 1193T1122 1156Q1173 1115 1173 1036T1164 910T1134 831Q1091 768 985 754Q1002 737 1018 719L1187 509H1037L869 718Q854 737 842 749Q805 750 762 751T688 754V509H559V1190ZM1025 894T1031 921T1038 1002T995 1080Q970
1094 879 1094T688 1087V858Q732 856 768 856Q810 856 861 856T948 860T1005 879Z" />
<glyph unicode="&#xaf;" glyph-name="overscore" horiz-adv-x="856" d="M128 1663H727V1528H128V1663Z" />
<glyph unicode="&#xb0;" glyph-name="degree" horiz-adv-x="1025" d="M512 1117Q449 1117 395 1139T302 1201Q219 1284 219 1407Q219 1531 302 1614Q386 1698 513 1698Q644 1698 726 1615Q806 1533 806 1407Q806 1285 720 1201T512 1117ZM444 1254Q474 1242 512
1242T580 1254T632 1289Q678 1335 678 1407Q678 1526 584 1564Q553 1576 514 1576T444 1564T392 1528Q346 1481 346 1407Q346 1294 444 1254Z" />
<glyph unicode="&#xb1;" glyph-name="plusminus" horiz-adv-x="1533" d="M180 806H694V1319H836V806H1351V673H836V265H694V673H180V806ZM209 134H1321V1H209V134Z" />
<glyph unicode="&#xb2;" glyph-name="twosuperior" horiz-adv-x="1025" d="M460 1669Q328 1669 198 1586L139 1712Q217 1770 368 1796Q422 1806 479 1806T595 1796T700 1760Q805 1700 805 1572Q805 1389 551 1178Q472 1113 377 1043L359 1032L839 1033V900H169L154
1013Q417 1195 556 1378Q638 1484 638 1554Q638 1651 526 1665Q494 1669 460 1669Z" />
<glyph unicode="&#xb3;" glyph-name="threesuperior" horiz-adv-x="1025" d="M794 1603Q794 1423 608 1377Q785 1377 818 1256Q829 1215 829 1150T802 1031T728 946Q641 884 509 884Q297 884 141 943L182 1074Q334 1007 494 1007Q639 1007 668 1095Q678 1127 678
1173T662 1245T620 1283Q583 1300 516 1300T310 1280L294 1397Q582 1435 632 1518Q648 1545 648 1577T632 1630T590 1660Q552 1675 490 1675T388 1668T313 1652Q246 1633 207 1610L150 1719Q270 1806 482 1806Q684 1806 764 1700Q794 1661 794 1603Z" />
<glyph unicode="&#xb4;" glyph-name="acute" horiz-adv-x="510" d="M26 1486L349 1837L479 1716L109 1399L26 1486Z" />
<glyph unicode="&#xb5;" glyph-name="mu" horiz-adv-x="1362" d="M567 -20Q438 -20 361 51L387 -457H216V1190H383V388Q383 243 421 192Q466 132 601 132Q778 132 961 258V259Q957 335 957 555V1190H1123V524Q1123 194 1142 8L993 -4L969 137Q852 40 696 -3Q634
-20 567 -20Z" />
<glyph unicode="&#xb6;" glyph-name="paragraph" horiz-adv-x="1704" d="M856 510Q810 506 770 506Q527 506 392 643Q255 781 255 1031Q255 1296 424 1420Q575 1530 863 1530H1396V0L1226 1V1377L1026 1363V0H856V510Z" />
<glyph unicode="&#xb7;" glyph-name="middot" horiz-adv-x="512" d="M149 522T144 547T139 612T144 677T164 716Q187 742 239 742T313 737T349 716Q372 691 372 613Q372 535 354 514Q326 481 256 481Q186 481 168 501Z" />
<glyph unicode="&#xb8;" glyph-name="cedilla" horiz-adv-x="511" d="M281 -203Q281 -113 174 1L175 11L247 48Q421 -57 421 -229Q421 -326 365 -377T205 -428Q118 -428 71 -409L96 -281Q143 -291 182 -291T251 -270T281 -203Z" />
<glyph unicode="&#xb9;" glyph-name="onesuperior" horiz-adv-x="683" d="M295 1644L110 1613L90 1737L446 1793V901H295V1644Z" />
<glyph unicode="&#xba;" glyph-name="ordmasculine" horiz-adv-x="1194" d="M876 687T800 658T615 628T444 641T339 681T271 747T232 837Q211 919 211 1057T222 1282T274 1428Q356 1549 608 1549Q859 1549 932 1428Q975 1354 980 1224Q983 1163 983 1071T971 891T917
746ZM423 783T469 764T586 744T695 753T759 780T797 828T817 898Q825 952 825 1109V1155Q825 1224 821 1276T795 1364Q753 1433 607 1433Q442 1433 398 1352Q376 1311 373 1250T369 1106V1053Q369 976 373 919T400 822Z" />
<glyph unicode="&#xbb;" glyph-name="guillemotright" horiz-adv-x="1529" d="M577 591L186 993L269 1086L744 659V527L279 93L188 179L577 591ZM1193 591L802 993L885 1086L1360 659V527L895 93L804 179L1193 591Z" />
<glyph unicode="&#xbc;" glyph-name="onequarter" horiz-adv-x="1705" d="M226 1384L41 1353L21 1477L377 1533V641H226V1384ZM831 319L1307 905H1516V343H1657V232L1516 219V-1H1365V217H831V319ZM1364 343V775Q1350 760 1330 736L1007 343H1364ZM1065 1531H1217L357
0H208L1065 1531Z" />
<glyph unicode="&#xbd;" glyph-name="onehalf" horiz-adv-x="1875" d="M301 1384L116 1353L96 1477L452 1533V641H301V1384ZM1369 769Q1237 769 1107 686L1048 812Q1126 870 1278 896Q1331 906 1388 906T1504 896T1610 860Q1714 800 1714 672Q1714 489 1460 278Q1381
213 1286 143L1268 132L1748 133V0H1078L1063 113Q1326 295 1466 478Q1547 584 1547 654Q1547 751 1436 765Q1403 769 1369 769ZM1129 1531H1281L421 0H272L1129 1531Z" />
<glyph unicode="&#xbe;" glyph-name="threequarters" horiz-adv-x="2045" d="M699 1347Q699 1167 513 1121Q690 1121 723 1000Q734 959 734 894T707 775T634 690Q546 628 414 628Q202 628 46 687L87 818Q239 751 399 751Q544 751 572 839Q583 871 583 917T567
989T524 1027Q488 1044 420 1044T215 1024L199 1141Q487 1179 537 1262Q553 1289 553 1321T537 1374T496 1404Q457 1419 395 1419T293 1412T218 1396Q151 1377 112 1354L55 1463Q175 1550 387 1550Q589 1550 670 1444Q699 1405 699 1347ZM1183 319L1659 905H1868V343H2009V232L1868
219V-1H1717V217H1183V319ZM1716 343V775Q1702 760 1682 736L1359 343H1716ZM1399 1531H1551L691 0H542L1399 1531Z" />
<glyph unicode="&#xbf;" glyph-name="questiondown" horiz-adv-x="1024" d="M684 627Q691 571 653 533L399 271Q339 207 327 173Q312 128 312 80T313 10T318 -27Q325 -55 344 -68T404 -98T507 -134Q654 -179 821 -199L788 -369Q491 -328 298 -233Q178 -173 155
-90Q143 -47 143 22T147 129T161 200T191 261T239 324T311 396L519 586L541 778H664L684 627ZM704 1168T709 1143T714 1078T709 1013T690 974Q666 948 614 948T540 953T504 974Q481 999 481 1077Q481 1155 499 1176Q527 1209 597 1209Q667 1209 685 1189Z" />
<glyph unicode="&#xc0;" glyph-name="Agrave" horiz-adv-x="1364" d="M550 1530H783L1318 0H1137L985 449H369L225 0H49L550 1530ZM937 592L667 1395L636 1281L415 592H937ZM353 1836L437 2000L858 1741L808 1649L353 1836Z" />
<glyph unicode="&#xc1;" glyph-name="Aacute" horiz-adv-x="1364" d="M550 1530H783L1318 0H1137L985 449H369L225 0H49L550 1530ZM937 592L667 1395L636 1281L415 592H937ZM457 1741L873 2000L966 1841L507 1649L457 1741Z" />
<glyph unicode="&#xc2;" glyph-name="Acircumflex" horiz-adv-x="1364" d="M550 1530H783L1318 0H1137L985 449H369L225 0H49L550 1530ZM937 592L667 1395L636 1281L415 592H937ZM362 1744L586 1991H746L979 1743L902 1663L665 1863L436 1662L362 1744Z" />
<glyph unicode="&#xc3;" glyph-name="Atilde" horiz-adv-x="1364" d="M550 1530H783L1318 0H1137L985 449H369L225 0H49L550 1530ZM937 592L667 1395L636 1281L415 592H937ZM1058 1926Q959 1696 792 1696Q744 1696 659 1756Q628 1778 598 1796T543 1815T499 1805T455
1779T408 1742L362 1702L291 1765Q347 1868 417 1914T557 1961H570Q625 1961 706 1904L762 1865Q788 1847 811 1847T854 1858T893 1889T932 1932L971 1982L1058 1926Z" />
<glyph unicode="&#xc4;" glyph-name="Adieresis" horiz-adv-x="1364" d="M550 1530H783L1318 0H1137L985 449H369L225 0H49L550 1530ZM937 592L667 1395L636 1281L415 592H937ZM890 1717Q827 1717 809 1735Q781 1764 781 1816T787 1890T805 1926Q828 1948 874
1948T942 1943T975 1926Q999 1902 999 1851T994 1777T975 1740Q954 1717 890 1717ZM432 1717Q369 1717 351 1735Q323 1764 323 1816T329 1890T347 1926Q370 1948 416 1948T483 1943T517 1926Q539 1903 539 1851T534 1777T517 1740Q495 1717 432 1717Z" />
<glyph unicode="&#xc5;" glyph-name="Aring" horiz-adv-x="1364" d="M550 1530H783L1318 0H1137L985 449H369L225 0H49L550 1530ZM937 592L667 1395L636 1281L415 592H937ZM659 1592Q496 1592 443 1701Q424 1739 424 1794T442 1889T493 1953Q553 2000 659 2000Q823
2000 875 1889Q894 1850 894 1795T876 1701T825 1639Q762 1592 659 1592ZM547 1794Q547 1699 657 1699T767 1794Q767 1894 657 1894T547 1794Z" />
<glyph unicode="&#xc6;" glyph-name="AE" horiz-adv-x="1875" d="M845 1530H1784V1382H1138V854H1649V707H1138V147H1811V0H968V420H452L239 0H47L845 1530ZM968 563V1437L524 563H968Z" />
<glyph unicode="&#xc7;" glyph-name="Ccedilla" horiz-adv-x="1194" d="M771 124Q934 124 1099 187L1143 49Q1067 11 960 -4T771 -20H757Q401 -20 280 184Q206 308 190 518Q183 619 183 739T189 967T216 1166T274 1328T376 1448Q506 1550 754 1550Q914 1550 1011
1530T1143 1496L1098 1338Q903 1406 765 1406T552 1373T435 1262Q362 1130 362 759V685Q362 380 441 259Q529 124 762 124H771ZM772 -203Q772 -113 665 1L666 11L738 48Q912 -57 912 -229Q912 -326 856 -377T696 -428Q609 -428 562 -409L587 -281Q634 -291 673
-291T742 -270T772 -203Z" />
<glyph unicode="&#xc8;" glyph-name="Egrave" horiz-adv-x="1195" d="M236 1530H1103V1382H406V854H968V707H406V147H1130V0H236V1530ZM394 1836L478 2000L899 1741L849 1649L394 1836Z" />
<glyph unicode="&#xc9;" glyph-name="Eacute" horiz-adv-x="1195" d="M236 1530H1103V1382H406V854H968V707H406V147H1130V0H236V1530ZM454 1741L870 2000L963 1841L504 1649L454 1741Z" />
<glyph unicode="&#xca;" glyph-name="Ecircumflex" horiz-adv-x="1195" d="M236 1530H1103V1382H406V854H968V707H406V147H1130V0H236V1530ZM381 1744L605 1991H765L998 1743L921 1663L684 1863L455 1662L381 1744Z" />
<glyph unicode="&#xcb;" glyph-name="Edieresis" horiz-adv-x="1195" d="M236 1530H1103V1382H406V854H968V707H406V147H1130V0H236V1530ZM906 1717Q843 1717 825 1735Q797 1764 797 1816T803 1890T821 1926Q844 1948 890 1948T958 1943T991 1926Q1015 1902 1015
1851T1010 1777T991 1740Q970 1717 906 1717ZM448 1717Q385 1717 367 1735Q339 1764 339 1816T345 1890T363 1926Q386 1948 432 1948T499 1943T533 1926Q555 1903 555 1851T550 1777T533 1740Q511 1717 448 1717Z" />
<glyph unicode="&#xcc;" glyph-name="Igrave" horiz-adv-x="683" d="M257 1530H426V0H257V1530ZM51 1836L135 2000L556 1741L506 1649L51 1836Z" />
<glyph unicode="&#xcd;" glyph-name="Iacute" horiz-adv-x="683" d="M257 1530H426V0H257V1530ZM118 1741L534 2000L627 1841L168 1649L118 1741Z" />
<glyph unicode="&#xce;" glyph-name="Icircumflex" horiz-adv-x="683" d="M257 1530H426V0H257V1530ZM37 1744L261 1991H421L654 1743L577 1663L340 1863L111 1662L37 1744Z" />
<glyph unicode="&#xcf;" glyph-name="Idieresis" horiz-adv-x="683" d="M257 1530H426V0H257V1530ZM570 1717Q507 1717 489 1735Q461 1764 461 1816T467 1890T485 1926Q508 1948 554 1948T622 1943T655 1926Q679 1902 679 1851T674 1777T655 1740Q634 1717 570
1717ZM112 1717Q49 1717 31 1735Q3 1764 3 1816T9 1890T27 1926Q50 1948 96 1948T163 1943T197 1926Q219 1903 219 1851T214 1777T197 1740Q175 1717 112 1717Z" />
<glyph unicode="&#xd0;" glyph-name="Eth" horiz-adv-x="1534" d="M236 1520Q632 1552 783 1552T1009 1541T1139 1503T1229 1430T1286 1311Q1322 1183 1322 967T1316 623T1289 395T1226 220T1116 96Q977 0 697 0H236V699H74V834H236V1520ZM727 148Q915 148 1003
209T1122 416Q1147 535 1147 799V974Q1147 1082 1140 1163T1102 1299Q1042 1407 841 1407Q734 1407 624 1400L406 1385V834H745V699H406V148H727Z" />
<glyph unicode="&#xd1;" glyph-name="Ntilde" horiz-adv-x="1536" d="M236 1530H371L1075 418L1166 229L1144 439V1530H1299V0H1156L457 1109L369 1281L391 1077V0H236V1530ZM1162 1926Q1063 1696 896 1696Q848 1696 763 1756Q732 1778 702 1796T647 1815T603
1805T559 1779T512 1742L466 1702L395 1765Q451 1868 521 1914T661 1961H674Q729 1961 810 1904L866 1865Q892 1847 915 1847T958 1858T997 1889T1036 1932L1075 1982L1162 1926Z" />
<glyph unicode="&#xd2;" glyph-name="Ograve" horiz-adv-x="1534" d="M739 -20Q383 -20 269 204Q202 334 190 551Q185 653 185 773T192 1000T219 1195T277 1348T376 1460Q502 1550 739 1550H801Q1172 1550 1276 1350Q1341 1225 1349 1002Q1353 893 1353 772T1347
548T1322 358T1267 201T1168 82Q1040 -20 801 -20H739ZM799 124Q909 124 981 148T1096 232Q1174 343 1174 658V766Q1174 917 1166 1035T1123 1234Q1051 1402 811 1402H727Q483 1402 415 1245Q372 1145 368 1009T364 766V658Q364 363 452 242Q537 124 739 124H799ZM494
1836L578 2000L999 1741L949 1649L494 1836Z" />
<glyph unicode="&#xd3;" glyph-name="Oacute" horiz-adv-x="1534" d="M739 -20Q383 -20 269 204Q202 334 190 551Q185 653 185 773T192 1000T219 1195T277 1348T376 1460Q502 1550 739 1550H801Q1172 1550 1276 1350Q1341 1225 1349 1002Q1353 893 1353 772T1347
548T1322 358T1267 201T1168 82Q1040 -20 801 -20H739ZM799 124Q909 124 981 148T1096 232Q1174 343 1174 658V766Q1174 917 1166 1035T1123 1234Q1051 1402 811 1402H727Q483 1402 415 1245Q372 1145 368 1009T364 766V658Q364 363 452 242Q537 124 739 124H799ZM584
1741L1000 2000L1093 1841L634 1649L584 1741Z" />
<glyph unicode="&#xd4;" glyph-name="Ocircumflex" horiz-adv-x="1534" d="M739 -20Q383 -20 269 204Q202 334 190 551Q185 653 185 773T192 1000T219 1195T277 1348T376 1460Q502 1550 739 1550H801Q1172 1550 1276 1350Q1341 1225 1349 1002Q1353 893 1353 772T1347
548T1322 358T1267 201T1168 82Q1040 -20 801 -20H739ZM799 124Q909 124 981 148T1096 232Q1174 343 1174 658V766Q1174 917 1166 1035T1123 1234Q1051 1402 811 1402H727Q483 1402 415 1245Q372 1145 368 1009T364 766V658Q364 363 452 242Q537 124 739 124H799ZM466
1744L690 1991H850L1083 1743L1006 1663L769 1863L540 1662L466 1744Z" />
<glyph unicode="&#xd5;" glyph-name="Otilde" horiz-adv-x="1534" d="M739 -20Q383 -20 269 204Q202 334 190 551Q185 653 185 773T192 1000T219 1195T277 1348T376 1460Q502 1550 739 1550H801Q1172 1550 1276 1350Q1341 1225 1349 1002Q1353 893 1353 772T1347
548T1322 358T1267 201T1168 82Q1040 -20 801 -20H739ZM799 124Q909 124 981 148T1096 232Q1174 343 1174 658V766Q1174 917 1166 1035T1123 1234Q1051 1402 811 1402H727Q483 1402 415 1245Q372 1145 368 1009T364 766V658Q364 363 452 242Q537 124 739 124H799ZM1163
1926Q1064 1696 897 1696Q849 1696 764 1756Q733 1778 703 1796T648 1815T604 1805T560 1779T513 1742L467 1702L396 1765Q452 1868 522 1914T662 1961H675Q730 1961 811 1904L867 1865Q893 1847 916 1847T959 1858T998 1889T1037 1932L1076 1982L1163 1926Z" />
<glyph unicode="&#xd6;" glyph-name="Odieresis" horiz-adv-x="1534" d="M739 -20Q383 -20 269 204Q202 334 190 551Q185 653 185 773T192 1000T219 1195T277 1348T376 1460Q502 1550 739 1550H801Q1172 1550 1276 1350Q1341 1225 1349 1002Q1353 893 1353 772T1347
548T1322 358T1267 201T1168 82Q1040 -20 801 -20H739ZM799 124Q909 124 981 148T1096 232Q1174 343 1174 658V766Q1174 917 1166 1035T1123 1234Q1051 1402 811 1402H727Q483 1402 415 1245Q372 1145 368 1009T364 766V658Q364 363 452 242Q537 124 739 124H799ZM995
1717Q932 1717 914 1735Q886 1764 886 1816T892 1890T910 1926Q933 1948 979 1948T1047 1943T1080 1926Q1104 1902 1104 1851T1099 1777T1080 1740Q1059 1717 995 1717ZM537 1717Q474 1717 456 1735Q428 1764 428 1816T434 1890T452 1926Q475 1948 521 1948T588
1943T622 1926Q644 1903 644 1851T639 1777T622 1740Q600 1717 537 1717Z" />
<glyph unicode="&#xd7;" glyph-name="multiply" horiz-adv-x="1363" d="M579 663L203 1038L300 1136L676 761L1052 1136L1146 1042L770 666L1140 296L1043 200L672 568L303 199L208 292L579 663Z" />
<glyph unicode="&#xd8;" glyph-name="Oslash" horiz-adv-x="1534" d="M438 38Q215 148 192 524Q185 638 185 765T192 1000T219 1195T277 1348T376 1460Q502 1550 739 1550H801Q885 1550 953 1541L1056 1846L1189 1820L1079 1512Q1176 1478 1231 1414T1313 1255T1346
1038T1353 783T1347 548T1322 358T1267 201T1168 82Q1040 -20 801 -20H739Q636 -20 558 -2L447 -334L317 -310L438 38ZM904 1395Q855 1402 811 1402H727Q483 1402 415 1245Q372 1145 368 1009T364 766V658Q364 307 494 196L700 785L904 1395ZM605 139Q663 124 739
124H799Q909 124 981 148T1096 232Q1174 343 1174 658V766Q1174 1028 1156 1119T1107 1265T1023 1353L822 785L605 139Z" />
<glyph unicode="&#xd9;" glyph-name="Ugrave" horiz-adv-x="1534" d="M214 1530H382V712Q382 470 403 382T451 250T523 178Q606 127 751 127T970 152T1084 242T1139 421T1153 712V1530H1321V718Q1321 461 1302 364T1250 198T1155 82Q1027 -20 773 -20Q395 -20
285 196Q224 317 217 516Q214 607 214 705V1530ZM517 1836L601 2000L1022 1741L972 1649L517 1836Z" />
<glyph unicode="&#xda;" glyph-name="Uacute" horiz-adv-x="1534" d="M214 1530H382V712Q382 470 403 382T451 250T523 178Q606 127 751 127T970 152T1084 242T1139 421T1153 712V1530H1321V718Q1321 461 1302 364T1250 198T1155 82Q1027 -20 773 -20Q395 -20
285 196Q224 317 217 516Q214 607 214 705V1530ZM524 1741L940 2000L1033 1841L574 1649L524 1741Z" />
<glyph unicode="&#xdb;" glyph-name="Ucircumflex" horiz-adv-x="1534" d="M214 1530H382V712Q382 470 403 382T451 250T523 178Q606 127 751 127T970 152T1084 242T1139 421T1153 712V1530H1321V718Q1321 461 1302 364T1250 198T1155 82Q1027 -20 773 -20Q395
-20 285 196Q224 317 217 516Q214 607 214 705V1530ZM458 1744L682 1991H842L1075 1743L998 1663L761 1863L532 1662L458 1744Z" />
<glyph unicode="&#xdc;" glyph-name="Udieresis" horiz-adv-x="1534" d="M214 1530H382V712Q382 470 403 382T451 250T523 178Q606 127 751 127T970 152T1084 242T1139 421T1153 712V1530H1321V718Q1321 461 1302 364T1250 198T1155 82Q1027 -20 773 -20Q395 -20
285 196Q224 317 217 516Q214 607 214 705V1530ZM998 1717Q935 1717 917 1735Q889 1764 889 1816T895 1890T913 1926Q936 1948 982 1948T1050 1943T1083 1926Q1107 1902 1107 1851T1102 1777T1083 1740Q1062 1717 998 1717ZM540 1717Q477 1717 459 1735Q431 1764
431 1816T437 1890T455 1926Q478 1948 524 1948T591 1943T625 1926Q647 1903 647 1851T642 1777T625 1740Q603 1717 540 1717Z" />
<glyph unicode="&#xdd;" glyph-name="Yacute" horiz-adv-x="1194" d="M512 565L13 1530H199L526 873L600 704L673 876L993 1530H1181L682 565L681 0H513L512 565ZM385 1741L801 2000L894 1841L435 1649L385 1741Z" />
<glyph unicode="&#xde;" glyph-name="Thorn" horiz-adv-x="1364" d="M874 254T833 252T690 249T406 276V0H236V1530H406V1271Q626 1291 784 1291T1025 1263T1154 1182Q1236 1090 1236 878Q1236 660 1212 567T1155 421T1079 336T996 287T915 263ZM968 1117T922
1131T755 1146T406 1126V417Q558 397 705 397T913 420T1006 500T1045 649T1054 848T1040 1004T997 1085Z" />
<glyph unicode="&#xdf;" glyph-name="germandbls" horiz-adv-x="1533" d="M708 201Q881 121 1055 121Q1227 121 1258 270Q1268 319 1268 374T1262 461T1235 515Q1199 553 1078 581T890 635T784 692Q718 744 718 846Q718 965 870 1064Q954 1118 974 1150T1002 1211Q1011
1248 1011 1332T1000 1459T958 1528Q896 1582 762 1582T565 1556T472 1474T431 1334T422 1133V0H259V1120Q259 1340 281 1429T336 1570T420 1656Q526 1725 734 1725Q1004 1725 1100 1621Q1148 1569 1164 1491T1181 1329T1167 1194T1130 1104Q1079 1017 964 945Q908
910 896 893T883 855T890 820T913 794Q938 777 1025 753L1194 706Q1275 684 1329 650T1410 556T1437 389V377Q1437 45 1190 -6Q1118 -20 1018 -20Q823 -20 640 62L708 201Z" />
<glyph unicode="&#xe0;" glyph-name="agrave" horiz-adv-x="1364" d="M1134 422Q1134 223 1153 8L1005 -4L980 135Q853 33 644 -7Q576 -20 523 -20T430 -15T352 4T282 45T226 114Q175 205 175 332T193 530T255 648Q340 741 541 741T970 665V795Q970 1012 791 1052Q733
1065 658 1065Q487 1065 303 997L266 1141Q317 1175 526 1202Q592 1210 684 1210T866 1188T1014 1116Q1134 1017 1134 795V422ZM966 540Q732 599 534 599Q412 599 372 529Q345 480 345 384T355 245T390 174Q437 121 545 121Q714 121 880 208Q931 234 972 266Q966
374 966 540ZM423 1714L548 1839L873 1486L790 1399L423 1714Z" />
<glyph unicode="&#xe1;" glyph-name="aacute" horiz-adv-x="1364" d="M1134 422Q1134 223 1153 8L1005 -4L980 135Q853 33 644 -7Q576 -20 523 -20T430 -15T352 4T282 45T226 114Q175 205 175 332T193 530T255 648Q340 741 541 741T970 665V795Q970 1012 791 1052Q733
1065 658 1065Q487 1065 303 997L266 1141Q317 1175 526 1202Q592 1210 684 1210T866 1188T1014 1116Q1134 1017 1134 795V422ZM966 540Q732 599 534 599Q412 599 372 529Q345 480 345 384T355 245T390 174Q437 121 545 121Q714 121 880 208Q931 234 972 266Q966
374 966 540ZM507 1486L830 1837L960 1716L590 1399L507 1486Z" />
<glyph unicode="&#xe2;" glyph-name="acircumflex" horiz-adv-x="1364" d="M1134 422Q1134 223 1153 8L1005 -4L980 135Q853 33 644 -7Q576 -20 523 -20T430 -15T352 4T282 45T226 114Q175 205 175 332T193 530T255 648Q340 741 541 741T970 665V795Q970 1012
791 1052Q733 1065 658 1065Q487 1065 303 997L266 1141Q317 1175 526 1202Q592 1210 684 1210T866 1188T1014 1116Q1134 1017 1134 795V422ZM966 540Q732 599 534 599Q412 599 372 529Q345 480 345 384T355 245T390 174Q437 121 545 121Q714 121 880 208Q931 234
972 266Q966 374 966 540ZM324 1479L603 1830H724L1012 1480L931 1400L665 1665L406 1400L324 1479Z" />
<glyph unicode="&#xe3;" glyph-name="atilde" horiz-adv-x="1364" d="M1134 422Q1134 223 1153 8L1005 -4L980 135Q853 33 644 -7Q576 -20 523 -20T430 -15T352 4T282 45T226 114Q175 205 175 332T193 530T255 648Q340 741 541 741T970 665V795Q970 1012 791 1052Q733
1065 658 1065Q487 1065 303 997L266 1141Q317 1175 526 1202Q592 1210 684 1210T866 1188T1014 1116Q1134 1017 1134 795V422ZM966 540Q732 599 534 599Q412 599 372 529Q345 480 345 384T355 245T390 174Q437 121 545 121Q714 121 880 208Q931 234 972 266Q966
374 966 540ZM1052 1640Q953 1410 786 1410Q738 1410 653 1470Q622 1492 592 1510T537 1529T493 1519T449 1493T402 1456L356 1416L285 1479Q341 1582 411 1628T551 1675H564Q619 1675 700 1618L756 1579Q782 1561 805 1561T848 1572T887 1603T926 1646L965 1696L1052
1640Z" />
<glyph unicode="&#xe4;" glyph-name="adieresis" horiz-adv-x="1364" d="M1134 422Q1134 223 1153 8L1005 -4L980 135Q853 33 644 -7Q576 -20 523 -20T430 -15T352 4T282 45T226 114Q175 205 175 332T193 530T255 648Q340 741 541 741T970 665V795Q970 1012 791
1052Q733 1065 658 1065Q487 1065 303 997L266 1141Q317 1175 526 1202Q592 1210 684 1210T866 1188T1014 1116Q1134 1017 1134 795V422ZM966 540Q732 599 534 599Q412 599 372 529Q345 480 345 384T355 245T390 174Q437 121 545 121Q714 121 880 208Q931 234 972
266Q966 374 966 540ZM897 1481Q834 1481 816 1499Q788 1528 788 1580T794 1654T812 1690Q835 1712 881 1712T949 1707T982 1690Q1006 1666 1006 1615T1001 1541T982 1504Q961 1481 897 1481ZM439 1481Q376 1481 358 1499Q330 1528 330 1580T336 1654T354 1690Q377
1712 423 1712T490 1707T524 1690Q546 1667 546 1615T541 1541T524 1504Q502 1481 439 1481Z" />
<glyph unicode="&#xe5;" glyph-name="aring" horiz-adv-x="1364" d="M1134 422Q1134 223 1153 8L1005 -4L980 135Q853 33 644 -7Q576 -20 523 -20T430 -15T352 4T282 45T226 114Q175 205 175 332T193 530T255 648Q340 741 541 741T970 665V795Q970 1012 791 1052Q733
1065 658 1065Q487 1065 303 997L266 1141Q317 1175 526 1202Q592 1210 684 1210T866 1188T1014 1116Q1134 1017 1134 795V422ZM966 540Q732 599 534 599Q412 599 372 529Q345 480 345 384T355 245T390 174Q437 121 545 121Q714 121 880 208Q931 234 972 266Q966
374 966 540ZM698 1364Q529 1364 473 1478Q453 1518 453 1575T472 1674T525 1741Q587 1790 698 1790Q868 1790 923 1674Q943 1633 943 1576T924 1479T871 1414Q807 1364 698 1364ZM579 1575Q579 1472 696 1472T813 1575Q813 1683 696 1683T579 1575Z" />
<glyph unicode="&#xe6;" glyph-name="ae" horiz-adv-x="2215" d="M1980 63Q1772 -20 1523 -20Q1237 -20 1115 125Q1104 138 1092 159L1033 120Q894 28 696 -8Q629 -20 576 -20T483 -15T405 4T335 45T279 114Q228 205 228 365Q228 549 302 642Q386 749 583 749T1027
672L1025 795Q1025 1011 844 1052Q786 1065 711 1065Q540 1065 356 997L319 1141Q370 1175 578 1202Q645 1210 754 1210T966 1171T1122 1039V1038L1123 1039Q1177 1135 1283 1172T1539 1210T1776 1176T1910 1076T1972 919T1987 742Q1987 609 1981 537Q1840 531
1730 531H1572Q1297 531 1179 550Q1179 321 1240 231Q1313 122 1523 122T1931 206L1980 63ZM1818 672V768Q1818 925 1760 992Q1695 1067 1527 1067Q1326 1067 1252 980Q1179 896 1179 672H1818ZM398 288T408 247T443 180Q489 131 598 131Q779 131 954 212Q1008
238 1049 270Q1028 369 1024 550Q822 605 587 605Q465 605 426 532Q398 481 398 385Z" />
<glyph unicode="&#xe7;" glyph-name="ccedilla" horiz-adv-x="1196" d="M528 -281Q575 -291 614 -291T683 -270T713 -207Q713 -118 624 -19Q441 -13 348 55Q268 113 235 199Q198 296 192 408T186 597T190 747T209 889T257 1015T344 1118Q463 1210 686 1210Q850
1210 988 1162Q1025 1150 1044 1139L994 991Q802 1065 680 1065T500 1037T410 952Q356 854 356 592Q356 487 363 401T398 252Q457 124 641 124T1000 188L1050 53Q941 -3 761 -16Q853 -110 853 -218Q853 -428 637 -428Q550 -428 503 -409L528 -281Z" />
<glyph unicode="&#xe8;" glyph-name="egrave" horiz-adv-x="1364" d="M1155 63Q948 -20 698 -20Q553 -20 452 10Q291 56 238 200Q189 335 189 600V651Q189 968 321 1096Q440 1210 718 1210Q989 1210 1088 1076Q1136 1011 1151 919T1167 742Q1167 611 1161 539Q1020
533 908 533Q908 533 747 533Q495 533 359 555Q359 325 417 234Q488 123 700 123T1106 206L1155 63ZM998 672V768Q998 925 937 992Q869 1067 702 1067Q502 1067 429 980Q359 897 359 672H998ZM436 1714L561 1839L886 1486L803 1399L436 1714Z" />
<glyph unicode="&#xe9;" glyph-name="eacute" horiz-adv-x="1364" d="M1155 63Q948 -20 698 -20Q553 -20 452 10Q291 56 238 200Q189 335 189 600V651Q189 968 321 1096Q440 1210 718 1210Q989 1210 1088 1076Q1136 1011 1151 919T1167 742Q1167 611 1161 539Q1020
533 908 533Q908 533 747 533Q495 533 359 555Q359 325 417 234Q488 123 700 123T1106 206L1155 63ZM998 672V768Q998 925 937 992Q869 1067 702 1067Q502 1067 429 980Q359 897 359 672H998ZM512 1486L835 1837L965 1716L595 1399L512 1486Z" />
<glyph unicode="&#xea;" glyph-name="ecircumflex" horiz-adv-x="1364" d="M1155 63Q948 -20 698 -20Q553 -20 452 10Q291 56 238 200Q189 335 189 600V651Q189 968 321 1096Q440 1210 718 1210Q989 1210 1088 1076Q1136 1011 1151 919T1167 742Q1167 611 1161
539Q1020 533 908 533Q908 533 747 533Q495 533 359 555Q359 325 417 234Q488 123 700 123T1106 206L1155 63ZM998 672V768Q998 925 937 992Q869 1067 702 1067Q502 1067 429 980Q359 897 359 672H998ZM349 1479L628 1830H749L1037 1480L956 1400L690 1665L431
1400L349 1479Z" />
<glyph unicode="&#xeb;" glyph-name="edieresis" horiz-adv-x="1364" d="M1155 63Q948 -20 698 -20Q553 -20 452 10Q291 56 238 200Q189 335 189 600V651Q189 968 321 1096Q440 1210 718 1210Q989 1210 1088 1076Q1136 1011 1151 919T1167 742Q1167 611 1161 539Q1020
533 908 533Q908 533 747 533Q495 533 359 555Q359 325 417 234Q488 123 700 123T1106 206L1155 63ZM998 672V768Q998 925 937 992Q869 1067 702 1067Q502 1067 429 980Q359 897 359 672H998ZM909 1481Q846 1481 828 1499Q800 1528 800 1580T806 1654T824 1690Q847
1712 893 1712T961 1707T994 1690Q1018 1666 1018 1615T1013 1541T994 1504Q973 1481 909 1481ZM451 1481Q388 1481 370 1499Q342 1528 342 1580T348 1654T366 1690Q389 1712 435 1712T502 1707T536 1690Q558 1667 558 1615T553 1541T536 1504Q514 1481 451 1481Z"
/>
<glyph unicode="&#xec;" glyph-name="igrave" horiz-adv-x="683" d="M261 1188H425V0H263L261 1188ZM39 1714L164 1839L489 1486L406 1399L39 1714Z" />
<glyph unicode="&#xed;" glyph-name="iacute" horiz-adv-x="683" d="M261 1188H425V0H263L261 1188ZM205 1486L528 1837L658 1716L288 1399L205 1486Z" />
<glyph unicode="&#xee;" glyph-name="icircumflex" horiz-adv-x="683" d="M261 1188H425V0H263L261 1188ZM0 1479L279 1830H400L688 1480L607 1400L341 1665L82 1400L0 1479Z" />
<glyph unicode="&#xef;" glyph-name="idieresis" horiz-adv-x="683" d="M261 1188H425V0H263L261 1188ZM573 1481Q510 1481 492 1499Q464 1528 464 1580T470 1654T488 1690Q511 1712 557 1712T625 1707T658 1690Q682 1666 682 1615T677 1541T658 1504Q637 1481
573 1481ZM115 1481Q52 1481 34 1499Q6 1528 6 1580T12 1654T30 1690Q53 1712 99 1712T166 1707T200 1690Q222 1667 222 1615T217 1541T200 1504Q178 1481 115 1481Z" />
<glyph unicode="&#xf0;" glyph-name="eth" horiz-adv-x="1366" d="M1202 453Q1202 -20 635 -20Q349 -20 249 134Q192 221 182 336Q178 391 178 443V627Q178 730 192 810T250 944Q338 1055 592 1055Q771 1055 947 986Q998 966 1037 944Q1037 955 1036 971L1034
1004Q1019 1244 807 1418L624 1239L527 1337L703 1493Q591 1565 438 1633L509 1758Q690 1671 802 1597L974 1779L1069 1672L910 1518Q1094 1367 1156 1179Q1202 1042 1202 791V453ZM1031 813Q837 907 606 907Q502 907 465 892T408 856T374 798Q349 729 349 585V443Q349
269 400 204Q457 130 620 130H674Q886 130 965 226Q1031 307 1031 503V813Z" />
<glyph unicode="&#xf1;" glyph-name="ntilde" horiz-adv-x="1364" d="M786 1054Q591 1054 389 939V0H223V1190H369L385 1067Q494 1156 656 1194Q722 1210 811 1210T968 1190T1076 1124Q1149 1043 1149 829V0H981V798Q981 942 953 983T887 1039T786 1054ZM1078
1640Q979 1410 812 1410Q764 1410 679 1470Q648 1492 618 1510T563 1529T519 1519T475 1493T428 1456L382 1416L311 1479Q367 1582 437 1628T577 1675H590Q645 1675 726 1618L782 1579Q808 1561 831 1561T874 1572T913 1603T952 1646L991 1696L1078 1640Z" />
<glyph unicode="&#xf2;" glyph-name="ograve" horiz-adv-x="1363" d="M188 592Q188 819 211 909T267 1051T358 1139Q472 1210 695 1210Q1017 1210 1109 1051Q1164 955 1172 780Q1175 697 1175 597T1169 411T1143 255T1090 135T1000 48Q890 -20 679 -20Q363 -20
264 136Q203 233 193 408Q188 492 188 592ZM496 148T550 135T699 121T858 148T955 234T996 389T1005 610T998 820T960 959Q900 1067 693 1067Q474 1067 408 959Q375 904 366 819T357 634T359 465T372 340T403 243T460 175ZM399 1714L524 1839L849 1486L766 1399L399
1714Z" />
<glyph unicode="&#xf3;" glyph-name="oacute" horiz-adv-x="1363" d="M188 592Q188 819 211 909T267 1051T358 1139Q472 1210 695 1210Q1017 1210 1109 1051Q1164 955 1172 780Q1175 697 1175 597T1169 411T1143 255T1090 135T1000 48Q890 -20 679 -20Q363 -20
264 136Q203 233 193 408Q188 492 188 592ZM496 148T550 135T699 121T858 148T955 234T996 389T1005 610T998 820T960 959Q900 1067 693 1067Q474 1067 408 959Q375 904 366 819T357 634T359 465T372 340T403 243T460 175ZM543 1486L866 1837L996 1716L626 1399L543
1486Z" />
<glyph unicode="&#xf4;" glyph-name="ocircumflex" horiz-adv-x="1363" d="M188 592Q188 819 211 909T267 1051T358 1139Q472 1210 695 1210Q1017 1210 1109 1051Q1164 955 1172 780Q1175 697 1175 597T1169 411T1143 255T1090 135T1000 48Q890 -20 679 -20Q363
-20 264 136Q203 233 193 408Q188 492 188 592ZM496 148T550 135T699 121T858 148T955 234T996 389T1005 610T998 820T960 959Q900 1067 693 1067Q474 1067 408 959Q375 904 366 819T357 634T359 465T372 340T403 243T460 175ZM350 1479L629 1830H750L1038 1480L957
1400L691 1665L432 1400L350 1479Z" />
<glyph unicode="&#xf5;" glyph-name="otilde" horiz-adv-x="1363" d="M188 592Q188 819 211 909T267 1051T358 1139Q472 1210 695 1210Q1017 1210 1109 1051Q1164 955 1172 780Q1175 697 1175 597T1169 411T1143 255T1090 135T1000 48Q890 -20 679 -20Q363 -20
264 136Q203 233 193 408Q188 492 188 592ZM496 148T550 135T699 121T858 148T955 234T996 389T1005 610T998 820T960 959Q900 1067 693 1067Q474 1067 408 959Q375 904 366 819T357 634T359 465T372 340T403 243T460 175ZM1069 1640Q970 1410 803 1410Q755 1410
670 1470Q639 1492 609 1510T554 1529T510 1519T466 1493T419 1456L373 1416L302 1479Q358 1582 428 1628T568 1675H581Q636 1675 717 1618L773 1579Q799 1561 822 1561T865 1572T904 1603T943 1646L982 1696L1069 1640Z" />
<glyph unicode="&#xf6;" glyph-name="odieresis" horiz-adv-x="1363" d="M188 592Q188 819 211 909T267 1051T358 1139Q472 1210 695 1210Q1017 1210 1109 1051Q1164 955 1172 780Q1175 697 1175 597T1169 411T1143 255T1090 135T1000 48Q890 -20 679 -20Q363
-20 264 136Q203 233 193 408Q188 492 188 592ZM496 148T550 135T699 121T858 148T955 234T996 389T1005 610T998 820T960 959Q900 1067 693 1067Q474 1067 408 959Q375 904 366 819T357 634T359 465T372 340T403 243T460 175ZM912 1481Q849 1481 831 1499Q803
1528 803 1580T809 1654T827 1690Q850 1712 896 1712T964 1707T997 1690Q1021 1666 1021 1615T1016 1541T997 1504Q976 1481 912 1481ZM454 1481Q391 1481 373 1499Q345 1528 345 1580T351 1654T369 1690Q392 1712 438 1712T505 1707T539 1690Q561 1667 561 1615T556
1541T539 1504Q517 1481 454 1481Z" />
<glyph unicode="&#xf7;" glyph-name="divide" horiz-adv-x="1195" d="M595 962Q531 962 512 981Q484 1010 484 1066T489 1146T508 1184Q532 1208 580 1208T649 1203T682 1184Q705 1159 705 1086Q705 1012 688 993Q660 962 595 962ZM107 707H1088V574H107V707ZM494
116T489 140T484 201T489 261T508 298Q532 323 580 323T649 318T682 298Q705 274 705 220T700 141T682 102Q661 77 595 77Q530 77 512 96Z" />
<glyph unicode="&#xf8;" glyph-name="oslash" horiz-adv-x="1363" d="M414 1174T496 1192T667 1210T824 1203L925 1507L1058 1481L949 1175Q1098 1122 1143 971Q1175 865 1175 600Q1175 371 1150 279T1090 135T1000 48Q890 -20 679 -20Q601 -20 540 -11L433 -334L303
-310L418 17Q274 70 226 220Q188 335 188 592Q188 819 211 909T267 1051T357 1139ZM778 1062Q728 1067 652 1067T509 1041T409 959T366 819T357 633T360 460T374 332Q397 215 471 167L631 619L778 1062ZM586 127Q628 121 711 121T858 148T955 234T996 389T1005
592T1002 764T988 879Q965 982 895 1025L738 585L586 127Z" />
<glyph unicode="&#xf9;" glyph-name="ugrave" horiz-adv-x="1364" d="M1123 524Q1123 194 1142 8L993 -4L969 137Q852 40 696 -3Q634 -20 549 -20T396 0T288 66Q215 147 215 361V1190H383V388Q383 244 411 203T477 147T569 132T671 140T771 165Q876 199 961 258V259Q957
335 957 555V1190H1123V524ZM391 1714L516 1839L841 1486L758 1399L391 1714Z" />
<glyph unicode="&#xfa;" glyph-name="uacute" horiz-adv-x="1364" d="M1123 524Q1123 194 1142 8L993 -4L969 137Q852 40 696 -3Q634 -20 549 -20T396 0T288 66Q215 147 215 361V1190H383V388Q383 244 411 203T477 147T569 132T671 140T771 165Q876 199 961 258V259Q957
335 957 555V1190H1123V524ZM512 1486L835 1837L965 1716L595 1399L512 1486Z" />
<glyph unicode="&#xfb;" glyph-name="ucircumflex" horiz-adv-x="1364" d="M1123 524Q1123 194 1142 8L993 -4L969 137Q852 40 696 -3Q634 -20 549 -20T396 0T288 66Q215 147 215 361V1190H383V388Q383 244 411 203T477 147T569 132T671 140T771 165Q876 199 961
258V259Q957 335 957 555V1190H1123V524ZM330 1479L609 1830H730L1018 1480L937 1400L671 1665L412 1400L330 1479Z" />
<glyph unicode="&#xfc;" glyph-name="udieresis" horiz-adv-x="1364" d="M1123 524Q1123 194 1142 8L993 -4L969 137Q852 40 696 -3Q634 -20 549 -20T396 0T288 66Q215 147 215 361V1190H383V388Q383 244 411 203T477 147T569 132T671 140T771 165Q876 199 961
258V259Q957 335 957 555V1190H1123V524ZM897 1481Q834 1481 816 1499Q788 1528 788 1580T794 1654T812 1690Q835 1712 881 1712T949 1707T982 1690Q1006 1666 1006 1615T1001 1541T982 1504Q961 1481 897 1481ZM439 1481Q376 1481 358 1499Q330 1528 330 1580T336
1654T354 1690Q377 1712 423 1712T490 1707T524 1690Q546 1667 546 1615T541 1541T524 1504Q502 1481 439 1481Z" />
<glyph unicode="&#xfd;" glyph-name="yacute" horiz-adv-x="1192" d="M197 -288Q270 -314 316 -314T377 -312T407 -301Q442 -282 459 -239Q501 -137 532 -15L73 1190H258L568 313L615 159L658 314L932 1190H1106L604 -282Q549 -454 350 -454Q224 -454 152 -418L197
-288ZM424 1486L747 1837L877 1716L507 1399L424 1486Z" />
<glyph unicode="&#xfe;" glyph-name="thorn" horiz-adv-x="1364" d="M379 111V-455H217V1702L383 1718V1076Q590 1210 783 1210Q1051 1210 1123 1045Q1168 941 1174 753Q1176 662 1176 553V473Q1176 336 1159 267T1114 149T1040 62Q938 -20 748 -20T379 111ZM383
242Q595 127 740 127H752Q923 127 972 222Q998 270 1004 347T1010 532V676Q1010 899 959 976Q909 1053 769 1053H744Q619 1053 454 979Q411 960 383 944V242Z" />
<glyph unicode="&#xff;" glyph-name="ydieresis" horiz-adv-x="1192" d="M197 -288Q270 -314 316 -314T377 -312T407 -301Q442 -282 459 -239Q501 -137 532 -15L73 1190H258L568 313L615 159L658 314L932 1190H1106L604 -282Q549 -454 350 -454Q224 -454 152 -418L197
-288ZM820 1481Q757 1481 739 1499Q711 1528 711 1580T717 1654T735 1690Q758 1712 804 1712T872 1707T905 1690Q929 1666 929 1615T924 1541T905 1504Q884 1481 820 1481ZM362 1481Q299 1481 281 1499Q253 1528 253 1580T259 1654T277 1690Q300 1712 346 1712T413
1707T447 1690Q469 1667 469 1615T464 1541T447 1504Q425 1481 362 1481Z" />
<glyph unicode="&#x2013;" glyph-name="endash" horiz-adv-x="1703" d="M258 663H1444V527H258V663Z" />
<glyph unicode="&#x2014;" glyph-name="emdash" horiz-adv-x="2214" d="M254 663H1960V527H254V663Z" />
<glyph unicode="&#x2018;" glyph-name="quoteleft" horiz-adv-x="512" d="M213 1250H166Q144 1250 129 1257T113 1281Q113 1309 120 1335L238 1806H369L298 1254L260 1252Q238 1250 213 1250Z" />
<glyph unicode="&#x2019;" glyph-name="quoteright" horiz-adv-x="512" d="M204 1802L242 1804Q264 1806 289 1806H331Q358 1806 373 1799T389 1775Q389 1747 382 1721L264 1250H133L204 1802Z" />
<glyph unicode="&#x201a;" glyph-name="quotesinglbase" horiz-adv-x="512" d="M204 233L242 235Q264 237 289 237H331Q358 237 373 230T389 206Q389 178 382 152L264 -319H133L204 233Z" />
<glyph unicode="&#x201c;" glyph-name="quotedblleft" horiz-adv-x="1026" d="M281 1250H234Q212 1250 197 1257T181 1281Q181 1309 188 1335L306 1806H437L366 1254L328 1252Q306 1250 281 1250ZM688 1250H641Q619 1250 604 1257T588 1281Q588 1309 595 1335L713
1806H844L773 1254L735 1252Q713 1250 688 1250Z" />
<glyph unicode="&#x201d;" glyph-name="quotedblright" horiz-adv-x="1026" d="M649 1802L687 1804Q709 1806 734 1806H776Q803 1806 818 1799T834 1775Q834 1747 827 1721L709 1250H578L649 1802ZM262 1802L300 1804Q322 1806 347 1806Q347 1806 389 1806Q416
1806 431 1799T447 1775Q447 1747 440 1721L322 1250H191L262 1802Z" />
<glyph unicode="&#x201e;" glyph-name="quotedblbase" horiz-adv-x="1026" d="M649 232L687 234Q709 236 734 236H776Q803 236 818 229T834 205Q834 177 827 151L709 -320H578L649 232ZM300 234Q322 236 347 236Q347 236 389 236Q416 236 431 229T447 205Q447
177 440 151L322 -320H191L262 232L300 234Z" />
<glyph unicode="&#x2022;" glyph-name="bullet" horiz-adv-x="683" d="M342 487Q244 487 210 523T176 644T184 763T212 818Q247 854 319 854T423 846T474 818Q507 782 507 700T500 581T474 524Q441 487 342 487Z" />
<glyph unicode="&#x2039;" glyph-name="guilsinglleft" horiz-adv-x="856" d="M308 584L699 182L616 89L141 516V648L606 1082L697 996L308 584Z" />
<glyph unicode="&#x203a;" glyph-name="guilsinglright" horiz-adv-x="856" d="M547 591L156 993L239 1086L714 659V527L249 93L158 179L547 591Z" />
</font>
</defs>
</svg>
