<?xml version="1.0" standalone="no"?>
<!DOCTYPE svg PUBLIC "-//W3C//DTD SVG 1.1//EN" "http://www.w3.org/Graphics/SVG/1.1/DTD/svg11.dtd">
<svg xmlns="http://www.w3.org/2000/svg">
  <defs>
    <font id="Antonio" horiz-adv-x="863">
      <font-face font-family="Antonio" units-per-em="2048" panose-1="0 0 0 0 0 0 0 0 0 0" ascent="2365" descent="-285" alphabetic="0" />
      <glyph unicode=" " glyph-name="gid146" horiz-adv-x="494" />
      <glyph unicode="!" glyph-name="gid153" horiz-adv-x="528" d="M222,395L146,1760H381L306,395H222ZM151,0V228H373V0H151Z" />
      <glyph unicode="&quot;" glyph-name="gid184" horiz-adv-x="744" d="M488,1058v702H677L558,1058H488Zm-327,0v702H350L231,1058H161Z" />
      <glyph unicode="#" glyph-name="gid160" horiz-adv-x="854" d="M107,0l86,626H38v91H204l51,362H74v91H268l83,590H489l-84-590H572l85,590H795l-82-590H863v-91H700L649,717H827V626H638L551,0H413l85,626H330L245,0H107ZM340,716H511l50,359H392L340,716Z" />
      <glyph unicode="$" glyph-name="gid199" horiz-adv-x="804" d="M364-246V34H474V-246H364ZM349,1485v275H459V1485H349ZM426-10Q266-10 183,90.5T100,424V537H299V425q0-126 27.5-193T417,165t92.5,41T539,353q0,53-16,105.5t-49,104T389,663L283,764q-95,91-145,193.5T88,1175q0,182 86,267.5T411,1528q101,0 170-44t104-146t35-278V988H525v104q0,126-24.5,193T413,1352q-61,0-91.5-35.5T288,1187q-1-48 12.5-97T345,993t80-94L533,798q105-97 158.5-208.5T745,354q0-170-77.5-267T426-10Z" />
      <glyph unicode="%" glyph-name="gid214" horiz-adv-x="2178" d="M652,0l708,1760h171L831,0H652ZM476,581q-115,0-183,41T195.5,757T166,1009v355q0,156 29,247.5t97,131T476,1782q117,0 185-39.5t97-131T787,1364V1009q0-158-29.5-252T660,622T476,581Zm0,161q73,0 99,43t26,152v496q0,107-25.5,147.5T476,1621q-73,0-99-41t-26-147V937q0-109 26-152t99-43ZM1690-20q-115,0-183.5,41t-98,134.5T1379,408V763q0,156 29,247.5t97,131t185,39.5t184.5-39.5t96.5-131T2000,763V408q0-159-29.5-252.5T1873,21T1690-20Zm0,161q72,0 98.5,43T1815,336V832q0,107-25.5,147.5T1690,1020q-73,0-99-41t-26-147V336q0-109 26-152t99-43Z" />
      <glyph unicode="&amp;" glyph-name="gid187" horiz-adv-x="958" d="M373-20Q246-20 157.5,68T69,337q0,129 38,233.5t98.5,194T333,937q-62,159-103.5,292.5T188,1434q0,170 79.5,259T481,1782q103,0 164.5-41.5t89-120T762,1431q0-97-33.5-190T643,1062T533,898L691,517q34,68 76,139t96,141l87-146q-58-75-101.5-158T770,328L923,0H741L660,170q-32-56-70.5-99T499,4T373-20Zm28,178q41,0 70,24t54.5,68T579,354L408,770q-41-59-73-122T283.5,519T260,385q-5-106 26.5-166.5T401,158Zm63,914q59,80 97,173.5T599,1436q0,95-21,138.5T489,1618q-44,0-68-18.5t-34-47T375,1492t-2-60q0-49 25.5-148T464,1072Z" />
      <glyph unicode="&apos;" glyph-name="gid185" horiz-adv-x="413" d="M172,1125l-60,635H309l-65-635H172Z" />
      <glyph unicode="(" glyph-name="gid168" horiz-adv-x="560" d="M478-242q-100,0-166.5,16.5T206-163.5T150.5-33T134,188V1352q0,136 16.5,221T206,1703.5t105.5,62T478,1782V1627q-45,0-72.5-7.5t-42-33.5T344,1505.5T339,1356V184q0-94 5-149t19.5-81t42-33.5T478-87V-242Z" />
      <glyph unicode=")" glyph-name="gid169" horiz-adv-x="560" d="M82-242V-87q45,0 72.5,7.5t42,33.5T216,35t5,149V1356q0,95-5,149.5T196.5,1586t-42,33.5T82,1627v155q100,0 166.5-16.5t105.5-62T409.5,1573T426,1352V188q0-136-16.5-221T354-163.5t-105.5-62T82-242Z" />
      <glyph unicode="*" glyph-name="gid159" horiz-adv-x="874" d="M357,1021l30,283L160,1128L80,1268l250,126L74,1513l81,139l231-168l-29,276H517l-24-273l226,172l81-139L543,1394l257-133l-81-140L493,1299l24-278H357Z" />
      <glyph unicode="+" glyph-name="gid202" horiz-adv-x="680" d="M264,501V751H40V891H264v246H413V891H640V751H413V501H264Z" />
      <glyph unicode="," glyph-name="gid149" horiz-adv-x="462" d="M170-344L243,0H119V235H377V9L276-344H170Z" />
      <glyph unicode="-" glyph-name="gid163" horiz-adv-x="696" d="M88,763V908H540V763H88Z" />
      <glyph unicode="." glyph-name="gid148" horiz-adv-x="532" d="M171,0V198H346V0H171Z" />
      <glyph unicode="/" glyph-name="gid161" horiz-adv-x="730" d="M54,0L493,1768H676L236,0H54Z" />
      <glyph unicode="0" glyph-name="gid129" horiz-adv-x="854" d="M432-21Q288-21 223,38T141,208T124,475v841q0,152 18.5,255T226,1726.5T432,1779t204-52.5T714.5,1571T730,1316V475q0-117-7-209T689,110T601,12.5T432-21Zm-2,175q29,0 49,7.5t32,37t17.5,94T534,470v857q0,134-11.5,192T488,1591t-58,14q-34,0-58.5-13.5t-38-71.5T320,1328V470q0-114 5.5-178T344,198.5t34-37t52-7.5Z" />
      <glyph unicode="1" glyph-name="gid130" horiz-adv-x="854" d="M393,0V1483q-24-28-73.5-52.5t-103.5-39T125,1377v164q53,8 119,34.5T367.5,1648T453,1760H599V0H393Z" />
      <glyph unicode="2" glyph-name="gid131" horiz-adv-x="854" d="M174,0V98q0,101 16.5,184t56,173T354,665L516,952q23,40 37,83.5t22.5,89.5t11.5,92.5t3,92.5q0,127-10,190t-33.5,83.5T482,1604q-42,0-68-21.5t-38-88T364,1294V1065H162v124q0,190 20,321.5t91,200T497,1779q117,0 179.5-62.5t86-172T786,1293q0-87-11-162T740,987T676,846L516,558q-56-100-85.5-163T390,279.5T379,155H759V0H174Z" />
      <glyph unicode="3" glyph-name="gid132" horiz-adv-x="854" d="M429-20Q248-20 178,97T108,464v88H303V471q0-118 9-187.5t37-99T434,155q58,0 86,33.5t37.5,107T567,487q0,133-15,210.5T499.5,808T393,841H344v165h47q67,0 105,24.5t53.5,92.5T565,1319q0,120-15.5,181T505,1582.5T435,1604q-42,0-70-25t-41.5-87.5T310,1316v-42H112v55q0,230 70.5,340T434,1779t257.5-115.5T768,1319q0-146-41.5-251.5T590,927q66-30 106-95.5T754,677t18-192q0-253-77.5-379T429-20Z" />
      <glyph unicode="4" glyph-name="gid133" horiz-adv-x="854" d="M497,0V332H81V477L472,1760H685V496H830V332H685V0H497ZM251,496H497v916L251,496Z" />
      <glyph unicode="5" glyph-name="gid134" horiz-adv-x="854" d="M450-20Q333-20 266,25.5t-95,122T143,316V510H343V315q0-69 21.5-115T450,154q57,0 82,42.5T557,326V851q0,101-21.5,154T452,1058q-50,0-81.5-45.5T339,871L161,887v873H714V1574H350V1163q17,32 60.5,51t92.5,19q87,0 143-48t83-170.5T756,668V629q0-160-7.5-281.5T712.5,144T622,21T450-20Z" />
      <glyph unicode="6" glyph-name="gid135" horiz-adv-x="854" d="M460-21Q352-21 285.5,14T184,115.5t-47.5,162T124,494v740q0,189 26.5,309.5t97.5,178T450,1779q110,0 175-43.5T719,1593t29-264v-83H564v53q0,136-10,201t-38,84.5T434,1604q-57,0-80.5-37t-28-115.5T321,1248V1043q26,21 69.5,37t94.5,16q122,0 184-59.5T752.5,859T774,565V507q0-157-19.5-276t-86-185.5T460-21Zm-5,178q58,0 86,29t36.5,93.5T586,451V582q0,129-7.5,206T544,898.5T459,932q-35,0-67-11.5T340.5,897T321,885V460q0-107 11-174t40-98t83-31Z" />
      <glyph unicode="7" glyph-name="gid136" horiz-adv-x="854" d="M207,0q18,240 56.5,452.5t87.5,396T447,1183q55,185 96,291t42,113H84v173H786V1611q-3-31-52.5-161.5T626,1113q-42-146-82.5-322.5t-71-376T428,0H207Z" />
      <glyph unicode="8" glyph-name="gid137" horiz-adv-x="854" d="M432-20Q256-20 176,85T93,417l-1,77q-1,96 17,186.5T161.5,841T244,943q-76,55-107.5,158T105,1344q0,229 72,332t256,103q185,0 255.5-102.5T759,1344q0-142-28.5-243.5T624,946q46-33 76.5-104.5t46-162.5T762,494V424q0-231-76.5-337.5T432-20Zm1,174q58,0 84,27t32.5,90T556,440v67q0,183-31.5,269.5T433,863q-56,0-95-86.5T299,504V435q0-155 23-218t111-63Zm-2,853q37,0 66.5,26.5T544,1131t17,205q0,127-14.5,185.5t-43,75.5T431,1614q-42,0-70.5-19.5t-43-79.5T303,1332q0-132 16-202.5t44.5-96.5t67.5-26Z" />
      <glyph unicode="9" glyph-name="gid138" horiz-adv-x="854" d="M427-20Q318-20 252.5,23.5T158,165.5T129,429v83H313V459q0-136 10-201t38.5-84.5T443,154q58,0 81,37t27,116t4,203V715q-25-21-68.5-37T392,662q-122,0-184,59.5t-83.5,178T103,1193v58q0,118 10,215t41,167t94,108t169,38q108,0 174.5-35T693,1642.5t47.5-162T753,1264V524q0-189-26.5-309t-97-177.5T427-20ZM417,826q36,0 67.5,12t51,23.5T555,873v425q0,161-24,232t-106,71q-58,0-87-29t-38.5-93.5T290,1307V1176q0-129 7.5-205.5T332,860t85-34Z" />
      <glyph unicode=":" glyph-name="gid150" horiz-adv-x="489" d="M132,1047v260H357V1047H132Zm0-777V530H357V270H132Z" />
      <glyph unicode=";" glyph-name="gid151" horiz-adv-x="561" d="M190-103l86,385H202V534H428V291L314-103H190Zm2,1150v260H417V1047H192Z" />
      <glyph unicode="&lt;" glyph-name="gid208" horiz-adv-x="730" d="M640,264L64,649V860l576,381V1021L207,755L640,478V264Z" />
      <glyph unicode="=" glyph-name="gid206" horiz-adv-x="722" d="M84,576V735H668V576H84Zm0,316v158H668V892H84Z" />
      <glyph unicode="&gt;" glyph-name="gid207" horiz-adv-x="730" d="M87,264V484L520,749L87,1027v214L663,857V646L87,264Z" />
      <glyph unicode="?" glyph-name="gid155" horiz-adv-x="854" d="M258,494V810q100,31 155,73t79.5,104t30,153t5.5,220q0,132-9,188t-69,56q-65,0-76.5-54T362,1356V1160H159v210q0,67 7.5,139T201,1643t85,100.5T446,1782t160.5-33.5t86-96.5t35-152.5T735,1299q0-173-24-289.5T622.5,823T437,718V494H258ZM261,0V299H438V0H261Z" />
      <glyph unicode="@" glyph-name="gid186" horiz-adv-x="1522" d="M1279,33Q979-68 761-55.5T402,68T192.5,375T124,836q0,212 38.5,385t122,298T501,1711.5T823,1779q202,0 328.5-107T1338,1370t60-460q0-153-26-283.5t-82.5-210T1142,337q-63,0-114,64T958,550q-19-104-76-167T748,320q-86,0-152.5,53T491,533.5T453,804q0,87 14,185.5T518.5,1176t107,144.5t179.5,62t269-62.5V672q0-94 16-144.5t59-50.5q37,0 59,52t31.5,155.5T1249,942q0,129-15.5,252.5t-61,223.5t-133,159T809,1636q-191,0-304.5-100.5T341,1254.5T291,833t56.5-407.5t174-253T821.5,85T1256,172l23-139ZM758,447q47,0 86,36.5t62.5,98T930,718v524q-91,36-154.5,19t-103-78T615,1026.5T597,810q0-169 34.5-266T758,447Z" />
      <glyph unicode="A" glyph-name="gid1" horiz-adv-x="907" d="M50,0L317,1760H566L857,0H662L612,336H293L247,0H50ZM316,504H586L447,1434h-3L316,504Z" />
      <glyph unicode="B" glyph-name="gid10" horiz-adv-x="917" d="M144,0V1760H462q135,0 209-40t104-127t31-229v-38q0-147-27.5-239.5T673,953q63-25 98-87t49.5-149T835,530V493q-2-172-34.5-281T693,51.5T488,0H144ZM351,167H478q59,0 91,29t45,101.5T627,499v61q0,163-26,234.5T489,866H351V167Zm0,858H468q42,0 68,9.5t40.5,38.5t19.5,86t5,153v49q0,100-15,149t-47.5,65T453,1591H351V1025Z" />
      <glyph unicode="C" glyph-name="gid11" horiz-adv-x="918" d="M470-21Q342-21 266,41.5T157,225T124,519v733q0,116 15,212.5t53.5,167t107.5,109T477,1779q103,0 168-36.5t101-104t49.5-160T809,1274V1079H606v196q0,164-23.5,245.5T477,1602q-87,0-116.5-83.5T331,1276V514q0-128 11-207.5T383.5,191T471,155q83,0 109,84t26,276V710H811V517q0-176-30.5-296T676,40T470-21Z" />
      <glyph unicode="D" glyph-name="gid13" horiz-adv-x="954" d="M144,0V1760H475q138,0 215-57.5T798,1538t31-256l1-773q0-178-35.5-290.5T679.5,53T468,0H144ZM350,167H456q56,0 93,24.5T604.5,283T623,477v810q0,166-39,237.5T456,1596H350V167Z" />
      <glyph unicode="E" glyph-name="gid15" horiz-adv-x="755" d="M144,0V1760H670V1588H351V986H653V814H351V172H674V0H144Z" />
      <glyph unicode="F" glyph-name="gid20" horiz-adv-x="747" d="M144,0V1760H674V1587H350V1031H654V856H350V0H144Z" />
      <glyph unicode="G" glyph-name="gid21" horiz-adv-x="939" d="M441-17Q288-17 206,109T124,524v738q0,116 16.5,210.5T197,1636t109.5,106T482,1779q110,0 175.5-37.5T757,1635t45-165t11-212V1122H613v229q0,128-25.5,189.5T482,1602q-85,0-118-73t-33-258V531q0-202 27.5-289T476,155q86,0 116.5,87.5T623,535V764H480V924H813V0H704L676,136Q648,62 587.5,22.5T441-17Z" />
      <glyph unicode="H" glyph-name="gid22" horiz-adv-x="984" d="M144,0V1760H351V1007H633v753H840V0H633V838H351V0H144Z" />
      <glyph unicode="I" glyph-name="gid23" horiz-adv-x="495" d="M144,0V1760H351V0H144Z" />
      <glyph unicode="J" glyph-name="gid28" horiz-adv-x="876" d="M412-21Q245-21 167.5,81.5T90,389V619H292V402q0-67 5.5-123T327,189t79-34t78.5,33t29,92.5T519,418V1760H726V426q0-222-78-334.5T412-21Z" />
      <glyph unicode="K" glyph-name="gid29" horiz-adv-x="909" d="M144,0V1760H351V921l313,839H872L544,891L895,0H679L353,842V0H144Z" />
      <glyph unicode="L" glyph-name="gid30" horiz-adv-x="695" d="M144,0V1760H351V171H676V0H144Z" />
      <glyph unicode="M" glyph-name="gid32" horiz-adv-x="1296" d="M144,0V1760H382L654,353L913,1760h239V0H975V666l17,658L727,0H579L303,1324l17-658V0H144Z" />
      <glyph unicode="N" glyph-name="gid33" horiz-adv-x="1014" d="M144,0V1760H300L708,562l-21,509v689H870V0H718L323,1208l12-444V0H144Z" />
      <glyph unicode="O" glyph-name="gid35" horiz-adv-x="944" d="M474-20Q342-20 265.5,38t-109,175T124,506v776q0,152 30,264t107,174t218,62q106,0 173-35.5t103.5-101T806,1488t14-206V506q0-176-31.5-293T681.5,38T474-20Zm0,178q57,0 87,32.5T602,299t11,205v790q0,158-25,234t-109,76q-87,0-117.5-75.5T331,1295V504q0-130 11-205.5t42-108T474,158Z" />
      <glyph unicode="P" glyph-name="gid43" horiz-adv-x="894" d="M144,0V1760H498q105,0 170.5-35T769,1624t47.5-159T829,1256v-27q0-177-27.5-297t-99-180.5T498,691H351V0H144ZM351,863H477q61,0 92,34.5T611.5,1012T623,1229v34q0,170-26,251.5T482,1596H351V863Z" />
      <glyph unicode="Q" glyph-name="gid45" horiz-adv-x="944" d="M667-269L430-11L569,56L769-176L667-269ZM474-20Q342-20 265.5,38t-109,175T124,506v776q0,152 30,264t107,174t218,62q106,0 173-35.5t103.5-101T806,1488t14-206V506q0-176-31.5-293T681.5,38T474-20Zm0,178q57,0 87,32.5T602,299t11,205v790q0,158-25,234t-109,76q-87,0-117.5-75.5T331,1295V504q0-130 11-205.5t42-108T474,158Z" />
      <glyph unicode="R" glyph-name="gid46" horiz-adv-x="939" d="M144,0V1760H513q140,0 207-49.5t87.5-149T828,1311q0-163-33-259T667,928q48-8 79.5-41T796,784t25.5-187.5T829,301q0-17 0-49t1-70t2.5-75T837,41.5T845,0H639q-4,9-7,40t-5,82t-3,121.5t-1,158T623,593q0,100-8.5,152.5t-40,73T474,843l-123,7V0H144ZM351,1002H483q57,0 87.5,22.5t41.5,90T623,1317v12q0,112-10.5,169.5T572,1576t-91,20H351V1002Z" />
      <glyph unicode="S" glyph-name="gid47" horiz-adv-x="828" d="M428-20Q321-20 254,18.5T151,128T101.5,295.5T88,509V680H289V501q0-185 26.5-264.5T430,157q61,0 89.5,28.5T556,277t8,166q0,118-41.5,203T403,809L288,924q-50,51-98,111.5T110.5,1173T79,1349q0,133 28,230t102,150t210,53q107,0 171.5-37t97-105.5t43-162.5T741,1269V1165H543v118q0,107-8.5,178.5T500,1569t-81,36q-50,0-81.5-24.5T292,1505t-14-131q0-70 17-115.5t51.5-84.5t84.5-92L551,955q95-99 155.5-221.5T767,449q0-146-28.5-251T637,36.5T428-20Z" />
      <glyph unicode="T" glyph-name="gid48" horiz-adv-x="629" d="M218,0V1588H24v172H605V1588H424V0H218Z" />
      <glyph unicode="U" glyph-name="gid49" horiz-adv-x="954" d="M479-21Q349-21 272.5,30.5T163,187T130,452V1760H337V457q0-95 7-163t37-104t98-36q69,0 98,36t35.5,103.5T619,456V1760H825V452q0-160-32-265T685.5,30.5T479-21Z" />
      <glyph unicode="V" glyph-name="gid54" horiz-adv-x="883" d="M334,0L41,1760H238l117-745L455,360h4l87,655l101,745H842L575,0H334Z" />
      <glyph unicode="W" glyph-name="gid55" horiz-adv-x="1340" d="M286,0L54,1760H245L395,411L595,1760H764L969,411l127,1349h190L1078,0H873L685,1299L486,0H286Z" />
      <glyph unicode="X" glyph-name="gid56" horiz-adv-x="796" d="M45,0L297,932L53,1760H234l172-586l151,586H743L499,857L751,0H571L392,608L234,0H45Z" />
      <glyph unicode="Y" glyph-name="gid57" horiz-adv-x="827" d="M321,0V739L15,1760H220l204-715h4l177,715H812L528,739V0H321Z" />
      <glyph unicode="Z" glyph-name="gid59" horiz-adv-x="690" d="M69,0V179L432,1588H102v172H646V1602L283,172H638V0H69Z" />
      <glyph unicode="[" glyph-name="gid172" horiz-adv-x="628" d="M144-120V1760H559V1601H350V40H559V-120H144Z" />
      <glyph unicode="\" glyph-name="gid162" horiz-adv-x="736" d="M483,0L72,1760H254L664,0H483Z" />
      <glyph unicode="]" glyph-name="gid173" horiz-adv-x="628" d="M69-120V40H278V1601H69v159H484V-120H69Z" />
      <glyph unicode="^" glyph-name="gid212" horiz-adv-x="919" d="M88,837l241,923H590L831,837H630L460,1600L290,837H88Z" />
      <glyph unicode="_" glyph-name="gid167" horiz-adv-x="748" d="M48-198V-46H699V-198H48Z" />
      <glyph unicode="`" glyph-name="gid228" horiz-adv-x="405" d="M244,1640L50,2011H261l94-371H244Z" />
      <glyph unicode="a" glyph-name="gid60" horiz-adv-x="902" d="M370-13Q234-13 174,92.5T113,385V531q0,99 34,164.5T243,805t146,79.5T573,960v116q0,96-6,155.5T536.5,1319T458,1347q-53,0-79.5-28T344,1231t-8-156v-52H132v43q0,96 12,178.5T190,1388t99.5,95.5T462,1518q102,0 164.5-32.5t96-95.5T768,1234.5T780,1021V0H574V130q-9-30-35-63.5T471,10T370-13Zm58,166q54,0 93,34.5T573,256V827q-77-34-126.5-61.5t-77-57.5T331,636T320,530V391q0-127 22-182.5T428,153Z" />
      <glyph unicode="b" glyph-name="gid68" horiz-adv-x="940" d="M558-13q-61,0-116.5,31.5T354,126V0H149V1779H354V1381q17,64 73.5,100.5T545,1518q112,0 170-63t79.5-171.5T816,1040V463q0-135-20.5-243t-76-170.5T558-13ZM490,154q75,1 97.5,75T610,463v604q0,84-7,146.5T571.5,1311T494,1346q-45,0-76-20.5T370.5,1245T354,1066V458q0-152 25.5-228T490,154Z" />
      <glyph unicode="c" glyph-name="gid69" horiz-adv-x="878" d="M459-18Q350-18 283.5,19t-101,106.5T136,291.5T124,506v502q0,150 25,265t98,180t217,65q100,0 161.5-33t94-95t44-148T775,1051V947H573v132q0,86-5.5,144.5T539,1312t-77,30q-57,0-85-32.5t-37.5-93T330,1073V435q0-93 8-154.5t35-92T456,158q54,0 78.5,32.5t31.5,94T573,431V576H775V479q0-111-11-202T720.5,120T625,18T459-18Z" />
      <glyph unicode="d" glyph-name="gid71" horiz-adv-x="939" d="M379-13Q268-13 213.5,52t-72,176.5T124,480v567q0,134 24.5,240.5t87,168.5T410,1518q59,0 105.5-34t70.5-84v379H792V0H586V126Q556,52 501,19.5T379-13Zm71,167q47,0 77.5,23.5t45,87.5T587,448v602q0,146-24.5,221T455,1346q-75-1-100-73.5T330,1045V439q0-87 8.5-151T373,189t77-35Z" />
      <glyph unicode="e" glyph-name="gid73" horiz-adv-x="881" d="M454-18Q346-18 280.5,19.5T181,126T135.5,291.5T124,505v530q0,106 15,194.5t52,153t103,100T462,1518q103,0 166-36t95.5-101.5t43.5-156T778,1026V743H330V444q0-142 19.5-216.5T456,153q57,0 81.5,35.5t30,100T573,441V562H774V498q0-117-9.5-212T724,123T628.5,18.5T454-18ZM329,882H573v191q0,90-6,151.5t-29,93T462,1349q-59,0-87.5-36t-37-99.5T329,1066V882Z" />
      <glyph unicode="f" glyph-name="gid78" horiz-adv-x="651" d="M202,0V1291H73v151H202v73q0,130 55.5,200.5T434,1786q59,0 102-9.5t47-11.5V1622q-40,6-71,6q-67,0-86-28t-19-77v-81H583V1291H407V0H202Z" />
      <glyph unicode="g" glyph-name="gid79" horiz-adv-x="929" d="M446-229q-103-3-185.5,23T119-133L193,7q44-30 104-53T436-67q70,2 108.5,52.5T583,121V264q-29-74-80-99T387,140q-105,0-162.5,61t-80,167T122,608v430q0,137 26.5,246T237,1456.5T405,1518q64-1 110.5-32t67.5-96v110H788V140q0-64-15.5-128t-53-117.5t-104-87T446-229Zm20,532q40,0 66,24t38.5,89.5T583,605v463q0,137-24.5,208T456,1347q-57,0-84.5-35.5T336,1214t-8-144V603q0-149 27-224.5T466,303Z" />
      <glyph unicode="h" glyph-name="gid80" horiz-adv-x="969" d="M145,0V1779H350V1341q20,70 84.5,124T589,1519q113,0 177-80t64-243V0H625V1179q0,92-33.5,127.5T502,1342q-41,0-76-19.5t-55.5-61T350,1154V0H145Z" />
      <glyph unicode="i" glyph-name="gid81" horiz-adv-x="504" d="M149,0V1500H355V0H149Zm0,1638v188H355V1638H149Z" />
      <glyph unicode="j" glyph-name="gid87" horiz-adv-x="520" d="M200-211q-48,0-84.5,4T62-200V-56q10-1 25.5-2T120-59q29,0 39.5,20.5T170,10V1500H375V20q0-85-25.5-136T284-189t-84-22ZM171,1638v188H377V1638H171Z" />
      <glyph unicode="k" glyph-name="gid89" horiz-adv-x="896" d="M149,0V1779H354V787l295,713H856L540,759L873,0H662L354,730V0H149Z" />
      <glyph unicode="l" glyph-name="gid90" horiz-adv-x="503" d="M147,0V1779H352V0H147Z" />
      <glyph unicode="m" glyph-name="gid92" horiz-adv-x="1430" d="M143,0V1500H348V1344q20,71 80.5,123T582,1519q74,0 129-36t83-116q37,68 102,110t152,42q119,0 181-84.5t62-250.5V0H1086V1190q0,85-33,118.5T966,1342q-77,0-111.5-34.5T820,1184V0H614V1191q0,80-31,115.5T496,1342q-73,0-110.5-47T348,1168V0H143Z" />
      <glyph unicode="n" glyph-name="gid93" horiz-adv-x="968" d="M143,0V1500H348V1341q20,70 85.5,124T590,1519q113,0 176-80t63-243V0H624V1195q0,80-36,116t-92,36q-41,0-75-18t-53.5-56T348,1175V0H143Z" />
      <glyph unicode="o" glyph-name="gid95" horiz-adv-x="914" d="M459-18Q353-18 287,18.5t-101.5,104T137,284.5T124,496v531q0,141 27,252t99.5,175T459,1518q102,0 167-36.5t101-103t49.5-156T790,1027V496q0-115-12-209T731.5,124.5T631.5,19T459-18Zm0,171q54,0 80.5,36T575,289.5T584,439v629q0,84-9,146.5T539,1312t-80,35q-56,0-84-35t-36.5-97.5T330,1068V439q0-85 8.5-149.5T375,189t84-36Z" />
      <glyph unicode="p" glyph-name="gid103" horiz-adv-x="939" d="M147-274V1500H352V1375q30,74 88.5,106T560,1513q108,0 163-63.5T796.5,1277T815,1030V487q0-142-21.5-256.5T710.5,49T527-18q-58,0-104.5,35.5T352,100V-274H147ZM487,154q74,1 98,74.5T609,459v607q0,83-7,146t-32,98.5T491,1346q-43,0-74-20t-48-80t-17-180V451q0-149 25.5-223T487,154Z" />
      <glyph unicode="q" glyph-name="gid105" horiz-adv-x="937" d="M585-274V104q-21-49-68-85.5T412-18Q294-18 231.5,47.5t-85,178T124,480v550q0,137 20,246.5t75,173T380,1513q61,0 117.5-29.5T585,1383v117H790V-274H585ZM445,154q45,0 76,21t47,81.5T584,435v615q0,152-26.5,224T450,1346q-76-1-98.5-74T329,1044V437q0-126 18-204.5T445,154Z" />
      <glyph unicode="r" glyph-name="gid106" horiz-adv-x="642" d="M147,0V1500H353V1333q26,87 90.5,136T608,1518q2,0 2.5-26.5T611,1431t0-60.5t0-26.5q-48,0-96-11.5t-90-39T353,1219V0H147Z" />
      <glyph unicode="s" glyph-name="gid107" horiz-adv-x="804" d="M426-20Q266-20 183,80.5T100,414V527H299V415q0-126 27.5-193T417,155t92.5,41T539,343q0,53-16,105.5t-49,104T389,653L283,754q-95,91-145,193.5T88,1165q0,182 86,267.5T411,1518q101,0 170-44t104-146t35-278V978H525v104q0,126-24.5,193T413,1342q-61,0-91.5-35.5T288,1177q-1-48 12.5-97T345,983t80-94L533,788q105-97 158.5-208.5T745,344q0-170-77.5-267T426-20Z" />
      <glyph unicode="t" glyph-name="gid109" horiz-adv-x="596" d="M408-9Q312-9 263,14T197,88T180,223V1336H43v152H180v272H385V1488H547V1336H385V241q0-38 10-56.5T440,160t109-6V-9H408Z" />
      <glyph unicode="u" glyph-name="gid110" horiz-adv-x="962" d="M386-20q-67,0-124,33T170,119.5T135,312V1500H340V335q0-87 31-132t98-45q74,0 109.5,51.5T614,340V1500H820V0H614V153Q592,83 535,31.5T386-20Z" />
      <glyph unicode="v" glyph-name="gid115" horiz-adv-x="774" d="M266,0L49,1500H235L352,649l41-355h7l35,356l104,850H726L507,0H266Z" />
      <glyph unicode="w" glyph-name="gid116" horiz-adv-x="1166" d="M230,0L55,1500H227l79-835l23-287h9l38,288l119,834h54h92h33L793,688l41-310h8l24,311l78,811h168L931,0H742L591,1174L411,0H230Z" />
      <glyph unicode="x" glyph-name="gid117" horiz-adv-x="751" d="M30,0L282,773L47,1500H228l158-479l140,479H712L470,766L722,0H531L367,510L216,0H30Z" />
      <glyph unicode="y" glyph-name="gid118" horiz-adv-x="786" d="M104-251V-96h71q44,0 76.5,4.5T291-72q12,16 9.5,50.5T292,53L47,1500H246L354,720l44-406h18l39,406l98,780H751L502-29q-12-81-30-130t-55.5-70.5T305-251H104Z" />
      <glyph unicode="z" glyph-name="gid121" horiz-adv-x="673" d="M72,0V153L402,1323H97v177H614V1359L283,175H597V0H72Z" />
      <glyph unicode="{" glyph-name="gid170" horiz-adv-x="657" d="M521-220q-106,0-168,30T264.5-86T238,118V453q0,96-8.5,145t-38,66T99,681V881q63,0 92.5,17t38,66t8.5,145v335q0,131 26.5,204.5T353,1752t168,30h60V1615q-61,0-90.5-13t-39-52T442,1431V1135q0-132-11.5-200.5t-47-100T276,781q72-21 107.5-53t47-100.5T442,427V131q0-79 9.5-118.5t39-52.5T581-53V-220H521Z" />
      <glyph unicode="|" glyph-name="gid194" horiz-adv-x="537" d="M175-124V1837H372V-124H175Z" />
      <glyph unicode="}" glyph-name="gid171" horiz-adv-x="657" d="M76-220V-53q61,0 90.5,13t39,52.5T215,131V427q0,132 11.5,200.5t47,100.5T381,781q-72,22-107.5,53.5t-47,100T215,1135v296q0,80-9.5,119t-39,52T76,1615v167h60q106,0 168-30t88.5-103.5T419,1444V1109q0-96 8.5-145t38-66T558,881V681q-63,0-92.5-17t-38-66T419,453V118q0-130-26.5-204T304-190T136-220H76Z" />
      <glyph unicode="~" glyph-name="gid210" horiz-adv-x="1117" d="M260,831L111,909q38,110 96,167.5T341,1134q39,0 95.5-13.5T553,1090t109-30.5t73-13.5q26,3 51.5,30.5T829,1161l164-42q-13-51-35-102t-51.5-92.5t-65.5-67T764,832q-43,0-97,14T556.5,878t-109,32T355,924q-30,0-52.5-23T260,831Z" />
      <glyph unicode="&#xa0;" glyph-name="gid147" horiz-adv-x="494" />
      <glyph unicode="&#xa1;" glyph-name="gid154" horiz-adv-x="528" d="M304,1105L380-260H145l75,1365h84Zm71,395V1272H153v228H375Z" />
      <glyph unicode="&#xa2;" glyph-name="gid197" horiz-adv-x="878" d="M402,1512v255H515V1510l-113,2Zm0-1762V5H515V-250H402ZM459-18Q350-18 283.5,19t-101,106.5T136,291.5T124,506v502q0,150 25,265t98,180t217,65q100,0 161.5-33t94-95t44-148T775,1051V947H573v132q0,86-5.5,144.5T539,1312t-77,30q-57,0-85-32.5t-37.5-93T330,1073V435q0-93 8-154.5t35-92T456,158q54,0 78.5,32.5t31.5,94T573,431V576H775V479q0-111-11-202T720.5,120T625,18T459-18Z" />
      <glyph unicode="&#xa3;" glyph-name="gid200" horiz-adv-x="854" d="M118,0V143q43,23 85.5,62.5t73.5,97T318,439T305,620q-10,47-20.5,94.5T263,809H81V949H229l-41,197q-17,84-26.5,141.5T152,1403q0,202 82.5,290.5T479,1782q110,0 177.5-42T755,1611t31-223V1246H612v147q0,67-8.5,117.5t-36,79T482,1618q-42,0-72-14t-46.5-59T347,1406q0-51 7.5-101.5T381,1165l47-216H732V809H465q10-49 19-97.5T503,614q23-115 11.5-203.5T461,260T350,164H787V0H118Z" />
      <glyph unicode="&#xa4;" glyph-name="gid198" horiz-adv-x="1159" d="M274,509L125,659l91,91q-53,98-53,214q0,117 52,214l-90,90l149,150l87-88q97,55 218,55t218-54l87,87l150-149l-90-90q54-97 54-215T944,748l90-90L884,509l-89,88q-92-52-216-52T363,598l-89-89ZM579,703q74,0 129,36t85,95.5T823,966q0,111-65.5,184.5T579,1224q-73,0-128-35t-85-94T336,964t30-131.5T450.5,738T579,703Z" />
      <glyph unicode="&#xa5;" glyph-name="gid201" horiz-adv-x="827" d="M75,391V507H367V682H75V798H753V682H496V507H753V391H75ZM321,0V739L15,1760H220l204-715h4l177,715H812L528,739V0H321Z" />
      <glyph unicode="&#xa6;" glyph-name="gid195" horiz-adv-x="485" d="M144-149V690H341V-149H144Zm0,1079v830H341V930H144Z" />
      <glyph unicode="&#xa7;" glyph-name="gid189" horiz-adv-x="805" d="M426-20Q279-20 189.5,70T100,340v94H299V342q0-97 24-157t114-60q62,0 92,43t30,113q0,60-13.5,101T506,454.5T441,517L243,679q-64,53-110,117.5T87,953q0,73 39.5,135T242,1182q-69,62-111.5,144T88,1487q0,89 38,155t110.5,103T411,1782q139,0 223.5-92T719,1423v-91H525v86q0,126-41,172.5T396,1637q-40,0-69-19.5T283,1565t-15-72t11-72t43-70t95-91l203-171q65-54 96.5-103t40-92.5T761,810q-5-54-34-91.5t-67-64T586,606q98-83 128.5-171.5T745,281q0-136-88-218.5T426-20Zm88,703q32,22 53,52t21,69q0,48-27.5,93T478,988t-140,97q-39-22-60-55.5T257,958q0-33 25-68.5t81.5-84T514,683Z" />
      <glyph unicode="&#xa8;" glyph-name="gid227" horiz-adv-x="814" d="M534,1640v178H764V1640H534Zm-484,0v178H280V1640H50Z" />
      <glyph unicode="&#xa9;" glyph-name="gid190" horiz-adv-x="1466" d="M741,205q-140,0-259.5,49.5t-209,139t-139,209T84,862t49.5,259.5t139,209t209,139T741,1519t259.5-49.5t209-139t139-209T1398,862t-49.5-259.5t-139-209t-209-139T741,205Zm0,129q129,0 226,45t161.5,120.5t96.5,170T1257,863q0,132-57.5,253t-172,197.5T741,1390q-129,0-225.5-45t-161-120.5t-97-170T225,861q0-132 57.5-253t172-197.5T741,334Zm-9,90q-104,0-154.5,56.5T527,628v461q0,96 42.5,156T736,1305q101,0 152.5-43.5T940,1095V977H815v107q0,74-22.5,89.5T738,1189t-59-14.5T652,1097V616q0-52 27-66t59-14t54.5,14T815,616V765H944V623q0-94-45-146.5T732,424Z" />
      <glyph unicode="&#xaa;" glyph-name="gid127" horiz-adv-x="927" d="M406,556q-109,0-156.5,84.5T201,874V992q0,80 27,132t76.5,87.5t116.5,64T569,1337v68q0,78-3.5,131.5t-22.5,81T477,1645q-64,0-81-50t-17-166v-44H216v35q0,77 9.5,142.5t36.5,115t79.5,77T480,1782q109,0 163-46t72.5-134.5T734,1384V567H570V667q-9-31-51-71T406,556Zm47,133q44,0 75,28t41,55v453q-83-37-127-64.5T382,1095T366,988V880q0-103 18-147t69-44Z" />
      <glyph unicode="&#xab;" glyph-name="gid180" horiz-adv-x="1304" d="M1098,372L620,657V839l478,271V903L786,749l312-163V372Zm-538,0L82,657V839l478,271V903L248,749L560,586V372Z" />
      <glyph unicode="&#xac;" glyph-name="gid211" horiz-adv-x="947" d="M602,439V796H97V979H793V439H602Z" />
      <glyph unicode="&#xad;" glyph-name="gid164" horiz-adv-x="696" d="M90,573V741H606V573H90Z" />
      <glyph unicode="&#xae;" glyph-name="gid191" horiz-adv-x="1502" d="M567,430v852H778q109,0 138.5-50.5T946,1073v-20q0-61-13.5-99.5T848,899q67-7 79-47.5T939,760V430H811V762q0,25-7,44.5T773,837t-74,11V430H567ZM700,945h56q52,0 60.5,33.5T825,1073q0,68-21,89.5T700,1184V945Zm51-611q129,0 226,45t161.5,120.5t96.5,170T1267,863q0,132-57.5,253t-172,197.5T751,1390q-129,0-225.5-45t-161-120.5t-97-170T235,861q0-132 57.5-253t172-197.5T751,334Zm0-129q-140,0-259.5,49.5t-209,139t-139,209T94,862t49.5,259.5t139,209t209,139T751,1519t259.5-49.5t209-139t139-209T1408,862t-49.5-259.5t-139-209t-209-139T751,205Z" />
      <glyph unicode="&#xaf;" glyph-name="gid233" horiz-adv-x="616" d="M50,1640v142H566V1640H50Z" />
      <glyph unicode="&#xb0;" glyph-name="gid193" horiz-adv-x="915" d="M457,1114q-88,0-169,37T155.5,1262.5T104,1448q0,112 51.5,186t133,111T458,1782t169-37t132.5-111T811,1448q0-111-51.5-185.5T627,1151t-170-37Zm2,121q50,0 95,23.5t74,71T657,1448t-29,118.5t-75,71T457,1661q-49,0-94.5-23.5t-74.5-71T259,1448t29-118.5t75-71t96-23.5Z" />
      <glyph unicode="&#xb1;" glyph-name="gid209" horiz-adv-x="854" d="M353,516V766H129V906H353v246H501V906H729V766H501V516H353ZM165,188V337H681V188H165Z" />
      <glyph unicode="&#xb2;" glyph-name="gid140" horiz-adv-x="846" d="M226,490v67q0,31 16.5,86t43,122t57,135.5t60,128.5t51,100.5T482,1179q24,44 39,118.5T536,1438q0,90-10.5,136T497,1636t-41,16q-24,0-43.5-16.5t-31-64.5T370,1428V1262H222v78q0,139 14.5,237t67,150T468,1779q64,0 105-30t64.5-80.5t33-113T680,1427q0-102-25.5-187T590,1079.5T508.5,930t-77-153.5T381,603H664V490H226Z" />
      <glyph unicode="&#xb3;" glyph-name="gid141" horiz-adv-x="868" d="M433,571q-130,0-183,82.5T197,902v54H339V902q0-120 17-166.5T435,689t81.5,51.5T536,911q0,131-29.5,184T402,1148H373v113h28q48,1 77.5,16t43,59.5T535,1467q0,80-13,121t-35.5,55.5T435,1658q-30,0-50.5-16.5T354,1583t-10-119v-25H201v28q0,155 53.5,233.5T438,1779q127,0 184.5-79.5T680,1467q0-98-27.5-167.5T560,1206q68-30 95-111.5T682,910q0-169-58.5-254T433,571Z" />
      <glyph unicode="&#xb4;" glyph-name="gid229" horiz-adv-x="405" d="M50,1640l94,371H355L161,1640H50Z" />
      <glyph unicode="&#xb5;" glyph-name="gid213" horiz-adv-x="962" d="M386-20q-67,0-124,33T170,119.5T135,312V1500H340V335q0-87 31-132t98-45q74,0 109.5,51.5T614,340V1500H820V0H614V153Q592,83 535,31.5T386-20ZM135,483H340V-265H135V483Z" />
      <glyph unicode="&#xb6;" glyph-name="gid188" horiz-adv-x="1064" d="M421,0V1135q-160,18-241.5,97T98,1456q0,91 28.5,150t90,92.5T377,1746t240,14H920V0H742V1575H599V0H421Z" />
      <glyph unicode="&#xb7;" glyph-name="gid157" horiz-adv-x="480" d="M148,769V977H348V769H148Z" />
      <glyph unicode="&#xb8;" glyph-name="gid234" horiz-adv-x="495" d="M167-617q-57,0-117,18v98q95,0 144.5,20t68,52.5T281-359q0,68-49,109T121-196L161,0h69l12-144q104-43 153.5-108T445-385q0-61-34.5-114T314-584.5T167-617Z" />
      <glyph unicode="&#xb9;" glyph-name="gid139" horiz-adv-x="627" d="M253,487V1557q-29-28-75.5-42.5T90,1500v100q40,5 82.5,25t78,54.5T302,1760H409V487H253Z" />
      <glyph unicode="&#xba;" glyph-name="gid128" horiz-adv-x="829" d="M417,552q-113,0-171.5,51t-79,144T146,964v424q0,113 21.5,202t80,140.5T417,1782q112,0 169-51t77-140t20-203V964q0-122-19-215T588,604T417,552Zm0,137q62-1 81,62t19,167v503q0,101-18,162.5T417,1645q-68,0-86.5-61.5T312,1421V918q0-103 19-166t86-63Z" />
      <glyph unicode="&#xbb;" glyph-name="gid181" horiz-adv-x="1304" d="M710,372V586l312,163L710,903v207l478-271V657L710,372Zm-538,0V586L484,749L172,903v207L650,839V657L172,372Z" />
      <glyph unicode="&#xbc;" glyph-name="gid144" horiz-adv-x="1535" d="M467,0L946,1760h133L600,0H467ZM250,514V1565q-27-28-71-42.5T95,1508v96q38,5 78,24.5t73.5,53T297,1760H397V514H250ZM1190,0V219H909v91l251,837h156V325h90V219h-90V0H1190ZM1028,325h162V928L1028,325Z" />
      <glyph unicode="&#xbd;" glyph-name="gid143" horiz-adv-x="1620" d="M477,0L956,1760h133L610,0H477ZM250,514V1565q-27-28-71-42.5T95,1508v96q38,5 78,24.5t73.5,53T297,1760H397V514H250ZM1096,0V65q0,39 12,121.5T1167,354l179,320q25,44 39,117t14,138q0,89-10.5,134.5T1360,1125t-41,16t-42-16t-30.5-63.5T1235,919V756H1092v77q0,136 14,232t65,147t161,51q84,0 128.5-51t61-130T1538,918t-17.5-158.5T1468,622L1309,334q-28-51-43.5-107T1245,108h277V0H1096Z" />
      <glyph unicode="&#xbe;" glyph-name="gid145" horiz-adv-x="1555" d="M467,0L946,1760h133L600,0H467ZM340,609q-121,0-171,79.5T119,931v50H251V931q0-119 16-164.5T344,721q59,0 78.5,50.5T442,939q0,129-29,180.5T313,1171H285v111h26q45,1 73.5,15t42,56.5T440,1481q0,80-12.5,120.5T393,1656t-50,14q-29,0-48.5-16.5t-29-58T256,1478v-24H123v27q0,151 50,226t171,75q120,0 174-76t54-225q0-96-26-164t-88-91q65-29 91-108.5T575,937q0-164-55.5-246T340,609ZM1190,0V219H909v91l251,837h156V325h90V219h-90V0H1190ZM1028,325h162V928L1028,325Z" />
      <glyph unicode="&#xbf;" glyph-name="gid156" horiz-adv-x="854" d="M623,1007V691q-100-31-155-73T388.5,514t-30-153T353,141q0-132 9-188t69-56q65,0 76.5,54T519,145V341H722V131q0-67-7.5-139T680-142T595-242.5T435-281T274.5-247.5t-86,96.5T153.5,1.5T146,202q0,173 24,289.5T258.5,678T444,783v224H623Zm-3,494V1202H443v299H620Z" />
      <glyph unicode="&#xc0;" glyph-name="gid6" horiz-adv-x="907" d="M50,0L317,1760H566L857,0H662L612,336H293L247,0H50ZM316,504H586L447,1434h-3L316,504ZM425,1900L231,2271H442l94-371H425Z" />
      <glyph unicode="&#xc1;" glyph-name="gid2" horiz-adv-x="907" d="M50,0L317,1760H566L857,0H662L612,336H293L247,0H50ZM316,504H586L447,1434h-3L316,504Zm6,1396l94,371H627L433,1900H322Z" />
      <glyph unicode="&#xc2;" glyph-name="gid4" horiz-adv-x="907" d="M50,0L317,1760H566L857,0H662L612,336H293L247,0H50ZM316,504H586L447,1434h-3L316,504ZM174,1900l154,292H560l153-292H530l-86,205l-86-205H174Z" />
      <glyph unicode="&#xc3;" glyph-name="gid8" horiz-adv-x="907" d="M50,0L317,1760H566L857,0H662L612,336H293L247,0H50ZM316,504H586L447,1434h-3L316,504ZM591,1900q-44,0-92,20.5t-94.5,41T316,1982q-16,0-23-2q-16-4-26.5-18.5T242,1921l-111,49q20,68 47.5,101.5t61,45T311,2128q41,0 92.5-18.5t98-37T573,2054h4q14,2 27,14t29,57l123-28l-9-37q-26-100-62.5-130T591,1900Z" />
      <glyph unicode="&#xc4;" glyph-name="gid5" horiz-adv-x="907" d="M50,0L317,1760H566L857,0H662L612,336H293L247,0H50ZM316,504H586L447,1434h-3L316,504ZM571,1900v178H801V1900H571Zm-484,0v178H317V1900H87Z" />
      <glyph unicode="&#xc5;" glyph-name="gid7" horiz-adv-x="907" d="M50,0L317,1760H566L857,0H662L612,336H293L247,0H50ZM316,504H586L447,1434h-3L316,504ZM444,1900q-97,0-148.5,56.5T244,2088q0,74 51.5,130.5T444,2275q98,0 149-56.5T644,2088q0-75-51-131.5T444,1900Zm0,72q55,0 82.5,36.5T554,2088q0,44-27.5,80T444,2204q-53,0-80-36t-27-80q0-43 27-79.5t80-36.5Z" />
      <glyph unicode="&#xc6;" glyph-name="gid9" horiz-adv-x="1190" d="M66,0L419,1760h686V1588H803V986h285V812H803V172h306V0H596V336H329L264,0H66ZM359,497H596V1590l-26-1L359,497Z" />
      <glyph unicode="&#xc7;" glyph-name="gid12" horiz-adv-x="918" d="M470-21Q342-21 266,41.5T157,225T124,519v733q0,116 15,212.5t53.5,167t107.5,109T477,1779q103,0 168-36.5t101-104t49.5-160T809,1274V1079H606v196q0,164-23.5,245.5T477,1602q-87,0-116.5-83.5T331,1276V514q0-128 11-207.5T383.5,191T471,155q83,0 109,84t26,276V710H811V517q0-176-30.5-296T676,40T470-21ZM428-617q-57,0-117,18v98q95,0 144.5,20t68,52.5T542-359q0,68-49,109T382-196L422,0h69l12-144q104-43 153.5-108T706-385q0-61-34.5-114T575-584.5T428-617Z" />
      <glyph unicode="&#xc8;" glyph-name="gid19" horiz-adv-x="755" d="M144,0V1760H670V1588H351V986H653V814H351V172H674V0H144ZM385,1900L191,2271H402l94-371H385Z" />
      <glyph unicode="&#xc9;" glyph-name="gid16" horiz-adv-x="755" d="M144,0V1760H670V1588H351V986H653V814H351V172H674V0H144ZM282,1900l94,371H587L393,1900H282Z" />
      <glyph unicode="&#xca;" glyph-name="gid17" horiz-adv-x="755" d="M144,0V1760H670V1588H351V986H653V814H351V172H674V0H144ZM134,1900l154,292H520l153-292H490l-86,205l-86-205H134Z" />
      <glyph unicode="&#xcb;" glyph-name="gid18" horiz-adv-x="755" d="M144,0V1760H670V1588H351V986H653V814H351V172H674V0H144ZM531,1900v178H761V1900H531Zm-484,0v178H277V1900H47Z" />
      <glyph unicode="&#xcc;" glyph-name="gid27" horiz-adv-x="495" d="M144,0V1760H351V0H144Zm85,1900L35,2271H246l94-371H229Z" />
      <glyph unicode="&#xcd;" glyph-name="gid24" horiz-adv-x="495" d="M144,0V1760H351V0H144ZM126,1900l94,371H431L237,1900H126Z" />
      <glyph unicode="&#xce;" glyph-name="gid25" horiz-adv-x="495" d="M144,0V1760H351V0H144ZM-22,1900l154,292H364l153-292H334l-86,205l-86-205H-22Z" />
      <glyph unicode="&#xcf;" glyph-name="gid26" horiz-adv-x="495" d="M144,0V1760H351V0H144ZM375,1900v178H605V1900H375Zm-484,0v178H121V1900H-109Z" />
      <glyph unicode="&#xd0;" glyph-name="gid14" horiz-adv-x="954" d="M144,0V1760H475q138,0 215-57.5T798,1538t31-256l1-773q0-178-35.5-290.5T679.5,53T468,0H144ZM350,167H456q56,0 93,24.5T604.5,283T623,477v810q0,166-39,237.5T456,1596H350V167ZM35,821V937H536V821H35Z" />
      <glyph unicode="&#xd1;" glyph-name="gid34" horiz-adv-x="1014" d="M144,0V1760H300L708,562l-21,509v689H870V0H718L323,1208l12-444V0H144ZM654,1900q-44,0-92,20.5t-94.5,41T379,1982q-16,0-23-2q-16-4-26.5-18.5T305,1921l-111,49q20,68 47.5,101.5t61,45T374,2128q41,0 92.5-18.5t98-37T636,2054h4q14,2 27,14t29,57l123-28l-9-37q-26-100-62.5-130T654,1900Z" />
      <glyph unicode="&#xd2;" glyph-name="gid39" horiz-adv-x="944" d="M474-20Q342-20 265.5,38t-109,175T124,506v776q0,152 30,264t107,174t218,62q106,0 173-35.5t103.5-101T806,1488t14-206V506q0-176-31.5-293T681.5,38T474-20Zm0,178q57,0 87,32.5T602,299t11,205v790q0,158-25,234t-109,76q-87,0-117.5-75.5T331,1295V504q0-130 11-205.5t42-108T474,158ZM453,1900L259,2271H470l94-371H453Z" />
      <glyph unicode="&#xd3;" glyph-name="gid36" horiz-adv-x="944" d="M474-20Q342-20 265.5,38t-109,175T124,506v776q0,152 30,264t107,174t218,62q106,0 173-35.5t103.5-101T806,1488t14-206V506q0-176-31.5-293T681.5,38T474-20Zm0,178q57,0 87,32.5T602,299t11,205v790q0,158-25,234t-109,76q-87,0-117.5-75.5T331,1295V504q0-130 11-205.5t42-108T474,158ZM350,1900l94,371H655L461,1900H350Z" />
      <glyph unicode="&#xd4;" glyph-name="gid37" horiz-adv-x="944" d="M474-20Q342-20 265.5,38t-109,175T124,506v776q0,152 30,264t107,174t218,62q106,0 173-35.5t103.5-101T806,1488t14-206V506q0-176-31.5-293T681.5,38T474-20Zm0,178q57,0 87,32.5T602,299t11,205v790q0,158-25,234t-109,76q-87,0-117.5-75.5T331,1295V504q0-130 11-205.5t42-108T474,158ZM202,1900l154,292H588l153-292H558l-86,205l-86-205H202Z" />
      <glyph unicode="&#xd5;" glyph-name="gid41" horiz-adv-x="944" d="M474-20Q342-20 265.5,38t-109,175T124,506v776q0,152 30,264t107,174t218,62q106,0 173-35.5t103.5-101T806,1488t14-206V506q0-176-31.5-293T681.5,38T474-20Zm0,178q57,0 87,32.5T602,299t11,205v790q0,158-25,234t-109,76q-87,0-117.5-75.5T331,1295V504q0-130 11-205.5t42-108T474,158ZM619,1900q-44,0-92,20.5t-94.5,41T344,1982q-16,0-23-2q-16-4-26.5-18.5T270,1921l-111,49q20,68 47.5,101.5t61,45T339,2128q41,0 92.5-18.5t98-37T601,2054h4q14,2 27,14t29,57l123-28l-9-37q-26-100-62.5-130T619,1900Z" />
      <glyph unicode="&#xd6;" glyph-name="gid38" horiz-adv-x="944" d="M474-20Q342-20 265.5,38t-109,175T124,506v776q0,152 30,264t107,174t218,62q106,0 173-35.5t103.5-101T806,1488t14-206V506q0-176-31.5-293T681.5,38T474-20Zm0,178q57,0 87,32.5T602,299t11,205v790q0,158-25,234t-109,76q-87,0-117.5-75.5T331,1295V504q0-130 11-205.5t42-108T474,158ZM599,1900v178H829V1900H599Zm-484,0v178H345V1900H115Z" />
      <glyph unicode="&#xd7;" glyph-name="gid204" horiz-adv-x="710" d="M176,374L76,478L252,655L76,832L176,936L355,758L534,936L634,832L458,655L634,478L534,374L355,552L176,374Z" />
      <glyph unicode="&#xd8;" glyph-name="gid40" horiz-adv-x="900" d="M174-206L75-166L803,1906l107-36L174-206ZM474-20Q342-20 265.5,38t-109,175T124,506v776q0,152 30,264t107,174t218,62q106,0 173-35.5t103.5-101T806,1488t14-206V506q0-176-31.5-293T681.5,38T474-20Zm0,178q57,0 87,32.5T602,299t11,205v790q0,158-25,234t-109,76q-87,0-117.5-75.5T331,1295V504q0-130 11-205.5t42-108T474,158Z" />
      <glyph unicode="&#xd9;" glyph-name="gid53" horiz-adv-x="954" d="M479-21Q349-21 272.5,30.5T163,187T130,452V1760H337V457q0-95 7-163t37-104t98-36q69,0 98,36t35.5,103.5T619,456V1760H825V452q0-160-32-265T685.5,30.5T479-21ZM458,1900L264,2271H475l94-371H458Z" />
      <glyph unicode="&#xda;" glyph-name="gid50" horiz-adv-x="954" d="M479-21Q349-21 272.5,30.5T163,187T130,452V1760H337V457q0-95 7-163t37-104t98-36q69,0 98,36t35.5,103.5T619,456V1760H825V452q0-160-32-265T685.5,30.5T479-21ZM355,1900l94,371H660L466,1900H355Z" />
      <glyph unicode="&#xdb;" glyph-name="gid51" horiz-adv-x="954" d="M479-21Q349-21 272.5,30.5T163,187T130,452V1760H337V457q0-95 7-163t37-104t98-36q69,0 98,36t35.5,103.5T619,456V1760H825V452q0-160-32-265T685.5,30.5T479-21ZM207,1900l154,292H593l153-292H563l-86,205l-86-205H207Z" />
      <glyph unicode="&#xdc;" glyph-name="gid52" horiz-adv-x="954" d="M479-21Q349-21 272.5,30.5T163,187T130,452V1760H337V457q0-95 7-163t37-104t98-36q69,0 98,36t35.5,103.5T619,456V1760H825V452q0-160-32-265T685.5,30.5T479-21ZM604,1900v178H834V1900H604Zm-484,0v178H350V1900H120Z" />
      <glyph unicode="&#xdd;" glyph-name="gid58" horiz-adv-x="827" d="M321,0V739L15,1760H220l204-715h4l177,715H812L528,739V0H321ZM292,1900l94,371H597L403,1900H292Z" />
      <glyph unicode="&#xde;" glyph-name="gid44" horiz-adv-x="927" d="M162,0V1760H368V1500H515q106,0 171.5-36t100-103T834,1199t13-212V963q0-177-28-297.5t-99.5-182T515,422H368V0H162ZM368,594H495q61,0 92,35t42.5,116.5T641,964v30q0,171-26,256t-116,85H368V594Z" />
      <glyph unicode="&#xdf;" glyph-name="gid108" horiz-adv-x="981" d="M144,0V1417q0,91 12.5,159T203,1689t99.5,67.5T474,1779q133,0 211-33t112-111.5T831,1417V1220q0-82-15-135.5t-50.5-86T668,945q86-20 134.5-65T871,756t20-203V476q0-112-11-200.5t-45-150T734,32T554,0H450V168q102,0 153,16t68.5,64.5T689,395V656q0,113-48.5,154T459,851v168q98,0 135,33.5T631,1170v300q0,90-31.5,123.5T484,1627q-73,0-104.5-33.5T348,1470V0H144Z" />
      <glyph unicode="&#xe0;" glyph-name="gid64" horiz-adv-x="902" d="M370-13Q234-13 174,92.5T113,385V531q0,99 34,164.5T243,805t146,79.5T573,960v116q0,96-6,155.5T536.5,1319T458,1347q-53,0-79.5-28T344,1231t-8-156v-52H132v43q0,96 12,178.5T190,1388t99.5,95.5T462,1518q102,0 164.5-32.5t96-95.5T768,1234.5T780,1021V0H574V130q-9-30-35-63.5T471,10T370-13Zm58,166q54,0 93,34.5T573,256V827q-77-34-126.5-61.5t-77-57.5T331,636T320,530V391q0-127 22-182.5T428,153Zm4,1487L238,2011H449l94-371H432Z" />
      <glyph unicode="&#xe1;" glyph-name="gid61" horiz-adv-x="902" d="M370-13Q234-13 174,92.5T113,385V531q0,99 34,164.5T243,805t146,79.5T573,960v116q0,96-6,155.5T536.5,1319T458,1347q-53,0-79.5-28T344,1231t-8-156v-52H132v43q0,96 12,178.5T190,1388t99.5,95.5T462,1518q102,0 164.5-32.5t96-95.5T768,1234.5T780,1021V0H574V130q-9-30-35-63.5T471,10T370-13Zm58,166q54,0 93,34.5T573,256V827q-77-34-126.5-61.5t-77-57.5T331,636T320,530V391q0-127 22-182.5T428,153ZM329,1640l94,371H634L440,1640H329Z" />
      <glyph unicode="&#xe2;" glyph-name="gid62" horiz-adv-x="902" d="M370-13Q234-13 174,92.5T113,385V531q0,99 34,164.5T243,805t146,79.5T573,960v116q0,96-6,155.5T536.5,1319T458,1347q-53,0-79.5-28T344,1231t-8-156v-52H132v43q0,96 12,178.5T190,1388t99.5,95.5T462,1518q102,0 164.5-32.5t96-95.5T768,1234.5T780,1021V0H574V130q-9-30-35-63.5T471,10T370-13Zm58,166q54,0 93,34.5T573,256V827q-77-34-126.5-61.5t-77-57.5T331,636T320,530V391q0-127 22-182.5T428,153ZM181,1640l154,292H567l153-292H537l-86,205l-86-205H181Z" />
      <glyph unicode="&#xe3;" glyph-name="gid66" horiz-adv-x="902" d="M370-13Q234-13 174,92.5T113,385V531q0,99 34,164.5T243,805t146,79.5T573,960v116q0,96-6,155.5T536.5,1319T458,1347q-53,0-79.5-28T344,1231t-8-156v-52H132v43q0,96 12,178.5T190,1388t99.5,95.5T462,1518q102,0 164.5-32.5t96-95.5T768,1234.5T780,1021V0H574V130q-9-30-35-63.5T471,10T370-13Zm58,166q54,0 93,34.5T573,256V827q-77-34-126.5-61.5t-77-57.5T331,636T320,530V391q0-127 22-182.5T428,153ZM598,1640q-44,0-92,20.5t-94.5,41T323,1722q-16,0-23-2q-16-4-26.5-18.5T249,1661l-111,49q20,68 47.5,101.5t61,45T318,1868q41,0 92.5-18.5t98-37T580,1794h4q14,2 27,14t29,57l123-28l-9-37q-26-100-62.5-130T598,1640Z" />
      <glyph unicode="&#xe4;" glyph-name="gid63" horiz-adv-x="902" d="M370-13Q234-13 174,92.5T113,385V531q0,99 34,164.5T243,805t146,79.5T573,960v116q0,96-6,155.5T536.5,1319T458,1347q-53,0-79.5-28T344,1231t-8-156v-52H132v43q0,96 12,178.5T190,1388t99.5,95.5T462,1518q102,0 164.5-32.5t96-95.5T768,1234.5T780,1021V0H574V130q-9-30-35-63.5T471,10T370-13Zm58,166q54,0 93,34.5T573,256V827q-77-34-126.5-61.5t-77-57.5T331,636T320,530V391q0-127 22-182.5T428,153ZM578,1640v178H808V1640H578Zm-484,0v178H324V1640H94Z" />
      <glyph unicode="&#xe5;" glyph-name="gid65" horiz-adv-x="902" d="M370-13Q234-13 174,92.5T113,385V531q0,99 34,164.5T243,805t146,79.5T573,960v116q0,96-6,155.5T536.5,1319T458,1347q-53,0-79.5-28T344,1231t-8-156v-52H132v43q0,96 12,178.5T190,1388t99.5,95.5T462,1518q102,0 164.5-32.5t96-95.5T768,1234.5T780,1021V0H574V130q-9-30-35-63.5T471,10T370-13Zm58,166q54,0 93,34.5T573,256V827q-77-34-126.5-61.5t-77-57.5T331,636T320,530V391q0-127 22-182.5T428,153Zm23,1487q-97,0-148.5,56.5T251,1828q0,74 51.5,130.5T451,2015q98,0 149-56.5T651,1828q0-75-51-131.5T451,1640Zm0,72q55,0 82.5,36.5T561,1828q0,44-27.5,80T451,1944q-53,0-80-36t-27-80q0-43 27-79.5t80-36.5Z" />
      <glyph unicode="&#xe6;" glyph-name="gid67" horiz-adv-x="1356" d="M925-18q-98,0-160.5,35.5T670,115q-23-29-65-59T510.5,6.5T404-13Q264-13 195,93T126,390V537q1,98 35,162t95.5,107.5T402,886t184,76v101q0,95-6.5,158T549,1315.5T470,1347q-52,0-78-27.5T357.5,1233T349,1077v-54H145v43q0,96 12,178.5T203,1388t99.5,95.5T475,1518q86,0 137-25t79-75q36,49 93.5,74.5T925,1518q103,0 166-36t95.5-101.5t43.5-156t11-198.5V740H792V457q0-102 8.5-169.5t35.5-101T919,153q57,0 81.5,38t30,105.5T1036,451V562h202V502q0-116-9-211.5T1190,126T1096.5,19.5T925-18ZM441,153q54,0 93,35t51,69V822q-78-35-127-62t-76.5-56.5t-38-71T333,527V391q0-127 22-182.5T441,153ZM792,889h244v184q0,90-6,151.5t-29.5,93T924,1349q-59,0-87.5-36T800,1212t-8-152V889Z" />
      <glyph unicode="&#xe7;" glyph-name="gid70" horiz-adv-x="878" d="M459-18Q350-18 283.5,19t-101,106.5T136,291.5T124,506v502q0,150 25,265t98,180t217,65q100,0 161.5-33t94-95t44-148T775,1051V947H573v132q0,86-5.5,144.5T539,1312t-77,30q-57,0-85-32.5t-37.5-93T330,1073V435q0-93 8-154.5t35-92T456,158q54,0 78.5,32.5t31.5,94T573,431V576H775V479q0-111-11-202T720.5,120T625,18T459-18ZM408-617q-57,0-117,18v98q95,0 144.5,20t68,52.5T522-359q0,68-49,109T362-196L402,0h69l12-144q104-43 153.5-108T686-385q0-61-34.5-114T555-584.5T408-617Z" />
      <glyph unicode="&#xe8;" glyph-name="gid77" horiz-adv-x="881" d="M454-18Q346-18 280.5,19.5T181,126T135.5,291.5T124,505v530q0,106 15,194.5t52,153t103,100T462,1518q103,0 166-36t95.5-101.5t43.5-156T778,1026V743H330V444q0-142 19.5-216.5T456,153q57,0 81.5,35.5t30,100T573,441V562H774V498q0-117-9.5-212T724,123T628.5,18.5T454-18ZM329,882H573v191q0,90-6,151.5t-29,93T462,1349q-59,0-87.5-36t-37-99.5T329,1066V882Zm93,758L228,2011H439l94-371H422Z" />
      <glyph unicode="&#xe9;" glyph-name="gid74" horiz-adv-x="881" d="M454-18Q346-18 280.5,19.5T181,126T135.5,291.5T124,505v530q0,106 15,194.5t52,153t103,100T462,1518q103,0 166-36t95.5-101.5t43.5-156T778,1026V743H330V444q0-142 19.5-216.5T456,153q57,0 81.5,35.5t30,100T573,441V562H774V498q0-117-9.5-212T724,123T628.5,18.5T454-18ZM329,882H573v191q0,90-6,151.5t-29,93T462,1349q-59,0-87.5-36t-37-99.5T329,1066V882Zm-10,758l94,371H624L430,1640H319Z" />
      <glyph unicode="&#xea;" glyph-name="gid75" horiz-adv-x="881" d="M454-18Q346-18 280.5,19.5T181,126T135.5,291.5T124,505v530q0,106 15,194.5t52,153t103,100T462,1518q103,0 166-36t95.5-101.5t43.5-156T778,1026V743H330V444q0-142 19.5-216.5T456,153q57,0 81.5,35.5t30,100T573,441V562H774V498q0-117-9.5-212T724,123T628.5,18.5T454-18ZM329,882H573v191q0,90-6,151.5t-29,93T462,1349q-59,0-87.5-36t-37-99.5T329,1066V882ZM171,1640l154,292H557l153-292H527l-86,205l-86-205H171Z" />
      <glyph unicode="&#xeb;" glyph-name="gid76" horiz-adv-x="881" d="M454-18Q346-18 280.5,19.5T181,126T135.5,291.5T124,505v530q0,106 15,194.5t52,153t103,100T462,1518q103,0 166-36t95.5-101.5t43.5-156T778,1026V743H330V444q0-142 19.5-216.5T456,153q57,0 81.5,35.5t30,100T573,441V562H774V498q0-117-9.5-212T724,123T628.5,18.5T454-18ZM329,882H573v191q0,90-6,151.5t-29,93T462,1349q-59,0-87.5-36t-37-99.5T329,1066V882Zm239,758v178H798V1640H568Zm-484,0v178H314V1640H84Z" />
      <glyph unicode="&#xec;" glyph-name="gid86" horiz-adv-x="504" d="M149,0V1500H355V0H149Zm84,1640L39,2011H250l94-371H233Z" />
      <glyph unicode="&#xed;" glyph-name="gid83" horiz-adv-x="504" d="M149,0V1500H355V0H149ZM130,1640l94,371H435L241,1640H130Z" />
      <glyph unicode="&#xee;" glyph-name="gid84" horiz-adv-x="504" d="M149,0V1500H355V0H149ZM-18,1640l154,292H368l153-292H338l-86,205l-86-205H-18Z" />
      <glyph unicode="&#xef;" glyph-name="gid85" horiz-adv-x="504" d="M149,0V1500H355V0H149ZM379,1640v178H609V1640H379Zm-484,0v178H125V1640H-105Z" />
      <glyph unicode="&#xf0;" glyph-name="gid72" horiz-adv-x="968" d="M461-20Q322-20 244.5,35t-109,162.5T104,462V571q0,188 31,306.5t104.5,173T438,1101q51-1 97.5-20.5T612,1025q0,5-1.5,40t-5,85t-8,103t-10,95T575,1407L358,1281l-59,118l208,121q-49,56-110,82t-115,33l67,144q98-4 185-42.5T683,1620l200,115l59-118L753,1507q13-26 23.5-88.5t19-141t14.5-156T819,986t3-77V516q0-161-28-281.5T688.5,47T461-20Zm-1,178q94,0 125,77t31,246V854q-10,21-54,47T454,927q-58,0-89-33.5t-42.5-110T311,578V440q0-112 13-173.5t45.5-85T460,158Z" />
      <glyph unicode="&#xf1;" glyph-name="gid94" horiz-adv-x="968" d="M143,0V1500H348V1341q20,70 85.5,124T590,1519q113,0 176-80t63-243V0H624V1195q0,80-36,116t-92,36q-41,0-75-18t-53.5-56T348,1175V0H143ZM631,1640q-44,0-92,20.5t-94.5,41T356,1722q-16,0-23-2q-16-4-26.5-18.5T282,1661l-111,49q20,68 47.5,101.5t61,45T351,1868q41,0 92.5-18.5t98-37T613,1794h4q14,2 27,14t29,57l123-28l-9-37q-26-100-62.5-130T631,1640Z" />
      <glyph unicode="&#xf2;" glyph-name="gid99" horiz-adv-x="914" d="M459-18Q353-18 287,18.5t-101.5,104T137,284.5T124,496v531q0,141 27,252t99.5,175T459,1518q102,0 167-36.5t101-103t49.5-156T790,1027V496q0-115-12-209T731.5,124.5T631.5,19T459-18Zm0,171q54,0 80.5,36T575,289.5T584,439v629q0,84-9,146.5T539,1312t-80,35q-56,0-84-35t-36.5-97.5T330,1068V439q0-85 8.5-149.5T375,189t84-36ZM438,1640L244,2011H455l94-371H438Z" />
      <glyph unicode="&#xf3;" glyph-name="gid96" horiz-adv-x="914" d="M459-18Q353-18 287,18.5t-101.5,104T137,284.5T124,496v531q0,141 27,252t99.5,175T459,1518q102,0 167-36.5t101-103t49.5-156T790,1027V496q0-115-12-209T731.5,124.5T631.5,19T459-18Zm0,171q54,0 80.5,36T575,289.5T584,439v629q0,84-9,146.5T539,1312t-80,35q-56,0-84-35t-36.5-97.5T330,1068V439q0-85 8.5-149.5T375,189t84-36ZM335,1640l94,371H640L446,1640H335Z" />
      <glyph unicode="&#xf4;" glyph-name="gid97" horiz-adv-x="914" d="M459-18Q353-18 287,18.5t-101.5,104T137,284.5T124,496v531q0,141 27,252t99.5,175T459,1518q102,0 167-36.5t101-103t49.5-156T790,1027V496q0-115-12-209T731.5,124.5T631.5,19T459-18Zm0,171q54,0 80.5,36T575,289.5T584,439v629q0,84-9,146.5T539,1312t-80,35q-56,0-84-35t-36.5-97.5T330,1068V439q0-85 8.5-149.5T375,189t84-36ZM187,1640l154,292H573l153-292H543l-86,205l-86-205H187Z" />
      <glyph unicode="&#xf5;" glyph-name="gid101" horiz-adv-x="914" d="M459-18Q353-18 287,18.5t-101.5,104T137,284.5T124,496v531q0,141 27,252t99.5,175T459,1518q102,0 167-36.5t101-103t49.5-156T790,1027V496q0-115-12-209T731.5,124.5T631.5,19T459-18Zm0,171q54,0 80.5,36T575,289.5T584,439v629q0,84-9,146.5T539,1312t-80,35q-56,0-84-35t-36.5-97.5T330,1068V439q0-85 8.5-149.5T375,189t84-36ZM604,1640q-44,0-92,20.5t-94.5,41T329,1722q-16,0-23-2q-16-4-26.5-18.5T255,1661l-111,49q20,68 47.5,101.5t61,45T324,1868q41,0 92.5-18.5t98-37T586,1794h4q14,2 27,14t29,57l123-28l-9-37q-26-100-62.5-130T604,1640Z" />
      <glyph unicode="&#xf6;" glyph-name="gid98" horiz-adv-x="914" d="M459-18Q353-18 287,18.5t-101.5,104T137,284.5T124,496v531q0,141 27,252t99.5,175T459,1518q102,0 167-36.5t101-103t49.5-156T790,1027V496q0-115-12-209T731.5,124.5T631.5,19T459-18Zm0,171q54,0 80.5,36T575,289.5T584,439v629q0,84-9,146.5T539,1312t-80,35q-56,0-84-35t-36.5-97.5T330,1068V439q0-85 8.5-149.5T375,189t84-36ZM584,1640v178H814V1640H584Zm-484,0v178H330V1640H100Z" />
      <glyph unicode="&#xf7;" glyph-name="gid205" horiz-adv-x="804" d="M94,671V838H710V671H94ZM303,197V495H501V197H303Zm0,819v298H501V1016H303Z" />
      <glyph unicode="&#xf8;" glyph-name="gid100" horiz-adv-x="879" d="M258-173L158-145L667,1672l101-28L258-173ZM459-18Q353-18 287,18.5t-101.5,104T137,284.5T124,496v531q0,141 27,252t99.5,175T459,1518q102,0 167-36.5t101-103t49.5-156T790,1027V496q0-115-12-209T731.5,124.5T631.5,19T459-18Zm0,171q54,0 80.5,36T575,289.5T584,439v629q0,84-9,146.5T539,1312t-80,35q-56,0-84-35t-36.5-97.5T330,1068V439q0-85 8.5-149.5T375,189t84-36Z" />
      <glyph unicode="&#xf9;" glyph-name="gid114" horiz-adv-x="962" d="M386-20q-67,0-124,33T170,119.5T135,312V1500H340V335q0-87 31-132t98-45q74,0 109.5,51.5T614,340V1500H820V0H614V153Q592,83 535,31.5T386-20Zm76,1660L268,2011H479l94-371H462Z" />
      <glyph unicode="&#xfa;" glyph-name="gid111" horiz-adv-x="962" d="M386-20q-67,0-124,33T170,119.5T135,312V1500H340V335q0-87 31-132t98-45q74,0 109.5,51.5T614,340V1500H820V0H614V153Q592,83 535,31.5T386-20ZM359,1640l94,371H664L470,1640H359Z" />
      <glyph unicode="&#xfb;" glyph-name="gid112" horiz-adv-x="962" d="M386-20q-67,0-124,33T170,119.5T135,312V1500H340V335q0-87 31-132t98-45q74,0 109.5,51.5T614,340V1500H820V0H614V153Q592,83 535,31.5T386-20ZM211,1640l154,292H597l153-292H567l-86,205l-86-205H211Z" />
      <glyph unicode="&#xfc;" glyph-name="gid113" horiz-adv-x="962" d="M386-20q-67,0-124,33T170,119.5T135,312V1500H340V335q0-87 31-132t98-45q74,0 109.5,51.5T614,340V1500H820V0H614V153Q592,83 535,31.5T386-20ZM608,1640v178H838V1640H608Zm-484,0v178H354V1640H124Z" />
      <glyph unicode="&#xfd;" glyph-name="gid119" horiz-adv-x="786" d="M104-251V-96h71q44,0 76.5,4.5T291-72q12,16 9.5,50.5T292,53L47,1500H246L354,720l44-406h18l39,406l98,780H751L502-29q-12-81-30-130t-55.5-70.5T305-251H104ZM271,1640l94,371H576L382,1640H271Z" />
      <glyph unicode="&#xfe;" glyph-name="gid104" horiz-adv-x="939" d="M147-274V1779H353V1375q30,74 87.5,106T559,1513q109,0 163.5-63.5t73-172.5T814,1030V487q0-142-21.5-256.5T709.5,49T526-18q-57,0-103,35.5T353,100V-274H147ZM487,155q75,1 98,74.5T608,460v605q0,83-7,146t-31.5,98.5T492,1345q-43,0-74.5-20t-48-80T353,1065V452q0-149 25-223t109-74Z" />
      <glyph unicode="&#xff;" glyph-name="gid120" horiz-adv-x="786" d="M104-251V-96h71q44,0 76.5,4.5T291-72q12,16 9.5,50.5T292,53L47,1500H246L354,720l44-406h18l39,406l98,780H751L502-29q-12-81-30-130t-55.5-70.5T305-251H104ZM520,1640v178H750V1640H520Zm-484,0v178H266V1640H36Z" />
      <glyph unicode="&#x2013;" glyph-name="gid165" horiz-adv-x="756" d="M120,550V741H636V550H120Z" />
      <glyph unicode="&#x2014;" glyph-name="gid166" horiz-adv-x="1153" d="M60,570V741H1092V570H60Z" />
      <glyph unicode="&#x2018;" glyph-name="gid178" horiz-adv-x="591" d="M144,1097v231l124,432H397l-92-423H453V1097H144Z" />
      <glyph unicode="&#x2019;" glyph-name="gid179" horiz-adv-x="591" d="M215,1097l92,423H160v240H469V1529L344,1097H215Z" />
      <glyph unicode="&#x201a;" glyph-name="gid174" horiz-adv-x="484" d="M152-382L238,0H97V232H399V9L285-382H152Z" />
      <glyph unicode="&#x201c;" glyph-name="gid176" horiz-adv-x="1030" d="M615,1126v224l115,410H862l-86-401H917V1126H615Zm-456,0v224l114,410H406l-86-401H461V1126H159Z" />
      <glyph unicode="&#x201d;" glyph-name="gid177" horiz-adv-x="1077" d="M684,1126l86,401H630v233H932V1536L817,1126H684Zm-456,0l86,401H173v233H475V1536L361,1126H228Z" />
      <glyph unicode="&#x201e;" glyph-name="gid175" horiz-adv-x="1016" d="M677-401L763,0H622V233H924V9L810-401H677Zm-456,0L307,0H166V233H468V9L353-401H221Z" />
      <glyph unicode="&#x2022;" glyph-name="gid158" horiz-adv-x="861" d="M430,483q-114,0-173.5,67T197,741t59.5,191T430,999q115,0 174.5-67T664,741T604.5,550T430,483Z" />
      <glyph unicode="&#x2039;" glyph-name="gid182" horiz-adv-x="606" d="M548,372L70,657V839l478,271V903L236,749L548,586V372Z" />
      <glyph unicode="&#x203a;" glyph-name="gid183" horiz-adv-x="727" d="M153,372V586L465,749L153,903v207L631,839V657L153,372Z" />
    </font>
</defs>
</svg>
