<?xml version="1.0" standalone="no"?>
<!DOCTYPE svg PUBLIC "-//W3C//DTD SVG 1.1//EN" "http://www.w3.org/Graphics/SVG/1.1/DTD/svg11.dtd">
<svg xmlns="http://www.w3.org/2000/svg">
  <defs>
    <font id="Antonio" horiz-adv-x="912">
      <font-face font-family="Antonio" units-per-em="2048" panose-1="0 0 0 0 0 0 0 0 0 0" ascent="2365" descent="-285" alphabetic="0" />
      <glyph unicode=" " glyph-name="gid146" horiz-adv-x="367" />
      <glyph unicode="!" glyph-name="gid153" horiz-adv-x="514" d="M204,423L115,1760H399L314,423H204ZM126,0V256H386V0H126Z" />
      <glyph unicode="&quot;" glyph-name="gid184" horiz-adv-x="944" d="M241,1125l-71,635H415l-66-635H241Zm365,0l-70,635H780l-66-635H606Z" />
      <glyph unicode="#" glyph-name="gid160" horiz-adv-x="1288" d="M153,0L266,579H140V753H300l55,278H207v173H389l112,556H718L605,1204H793l112,556h217l-111-556h123V1031H977L922,753h145V579H887L773,0H557L670,579H482L369,0H153ZM516,752H705l55,276H571L516,752Z" />
      <glyph unicode="$" glyph-name="gid199" horiz-adv-x="902" d="M405-220V53H549V-220H405Zm-9,1724v256H540V1504H396ZM442,3Q261,3 173,106T85,443v97H334V419q0-98 24-149t78-51q52,0 77,35t25,121q0,50-14.5,97t-45,92.5T400,653L265,775q-93,84-139,181.5T80,1172q0,191 89.5,279.5T435,1540q114,0 189-42.5T736,1360t37-255v-82H536v99q0,99-22.5,150T437,1323q-53,0-78-29.5T332,1190q-1-40 10-78.5t34.5-75T438,965L580,836Q692,735 745.5,625T799,387q0-189-86-286.5T442,3Z" />
      <glyph unicode="%" glyph-name="gid214" horiz-adv-x="2209" d="M662,0l685,1760h204L875,0H662ZM468,580q-118,0-193,45.5T165,765t-35,240v358q0,148 33.5,240t108,135T468,1781q123,0 197-43t107.5-135T806,1363V1005q0-146-35-240T661.5,625.5T468,580Zm0,188q65,0 88.5,41.5T580,939v492q0,87-22,125t-90,38q-67,0-89.5-38.5T356,1431V939q0-88 23.5-129.5T468,768ZM1741-21q-118,0-193,45.5T1438,164t-35,240V762q0,148 33.5,240t108,135t196.5,43q123,0 197.5-43t108-135T2080,762V404q0-146-35-240T1935,24.5T1741-21Zm0,188q65,0 89,41.5T1854,338V830q0,87-22.5,125T1741,993q-67,0-89.5-38.5T1629,830V338q0-88 23.5-129.5T1741,167Z" />
      <glyph unicode="&amp;" glyph-name="gid187" horiz-adv-x="1052" d="M394-20Q245-20 159,82.5T73,378q0,103 40,197.5t103.5,183T351,930q-61,159-102,293.5T208,1431q0,170 88.5,260T531,1781q106,0 176-40.5t105-118T847,1434q0-93-33-180.5t-86-170T613,922L742,601q39,65 85.5,134.5T932,874l109-184q-62-69-109.5-153T840,369L998,0H750L693,130q-37-44-80.5-78T515-1T394-20Zm45,229q30,0 56,17t51,47.5T597,346L442,706q-39-52-70.5-103T321,502t-21-99q-3-95 31.5-144.5T439,209Zm91,935q58,75 95,148t37,146q0,86-21,124t-80,38q-35,0-57-14t-33.5-37.5T455,1497t-4-56q0-40 21.5-117.5T530,1144Z" />
      <glyph unicode="&apos;" glyph-name="gid185" horiz-adv-x="423" d="M160,1125l-60,635H338l-65-635H160Z" />
      <glyph unicode="(" glyph-name="gid168" horiz-adv-x="619" d="M534-136q-112,0-189.5,19.5t-125,69t-69,137T129,313V1374q0,136 21.5,223.5t69,137t125,69T534,1823V1623q-45,0-72.5-10.5t-42-37.5T400,1500.5T395,1378V309q0-75 5-122.5T419.5,112t42-37.5T534,64V-136Z" />
      <glyph unicode=")" glyph-name="gid169" horiz-adv-x="619" d="M86-136V64q45,0 72.5,10.5t42,37.5T220,186.5T225,309V1378q0,75-5,122.5T200.5,1575t-42,37.5T86,1623v200q112,0 189.5-19.5t124.5-69t68.5-137T490,1374V313q0-136-21.5-223.5T400-47.5t-124.5-69T86-136Z" />
      <glyph unicode="*" glyph-name="gid159" horiz-adv-x="960" d="M386,889l35,291L190,998L95,1162l260,123L91,1400l95,164l234-173l-34,282H574l-28-278l228,173l95-164L605,1285l264-127L774,995L546,1174l28-285H386Z" />
      <glyph unicode="+" glyph-name="gid202" horiz-adv-x="808" d="M312,421V654H94V831H312v231H494V831H713V654H494V421H312Z" />
      <glyph unicode="," glyph-name="gid149" horiz-adv-x="488" d="M172-338L242,0H117V268H405V9L303-338H172Z" />
      <glyph unicode="-" glyph-name="gid163" horiz-adv-x="696" d="M89,661V836H567V661H89Z" />
      <glyph unicode="." glyph-name="gid148" horiz-adv-x="532" d="M149,0V246H374V0H149Z" />
      <glyph unicode="/" glyph-name="gid161" horiz-adv-x="826" d="M86,0L513,1769H748L320,0H86Z" />
      <glyph unicode="0" glyph-name="gid129" horiz-adv-x="1010" d="M501-21Q357-21 269.5,38t-127,170T103,475v841q0,152 40.5,255.5T272,1728t229,53t228.5-53T858,1571.5T899,1316V475q0-117-22-209T808,110T685,12.5T501-21Zm-1,231q29,0 53,9.5T594.5,256t27,78.5T631,470v857q0,98-18,145.5T565,1535t-65,15q-34,0-63.5-14t-48-61T370,1328V470q0-85 8.5-136.5T404,255t41-36t55-9Z" />
      <glyph unicode="1" glyph-name="gid130" horiz-adv-x="676" d="M258,0V1428q-24-28-61-47.5t-78.5-29T40,1342v199q53,8 106.5,34.5T245,1648t73,112H526V0H258Z" />
      <glyph unicode="2" glyph-name="gid131" horiz-adv-x="951" d="M160,0V104q0,96 20.5,188T243,479T348,679L522,968q18,30 32.5,62.5T579,1102t15.5,88.5T600,1304q0,97-11.5,150t-33,74T504,1549t-54.5-18.5t-38.5-74T397,1288V1065H141v108q0,190 25.5,326T271,1707.5T511,1780q125,0 200-66t109-176.5T854,1293q0-82-14.5-154T800,1003.5T743,884L581,596q-32-58-63.5-118t-58-126T415,210H821V0H160Z" />
      <glyph unicode="3" glyph-name="gid132" horiz-adv-x="960" d="M469-20Q264-20 184.5,102.5T105,474V589H356V467q0-89 8-146t34-84t80-27q53,0 80,32.5t36.5,98T604,504q0,115-13,186.5T543,795T442,828H366v204h74q64,0 99.5,28.5t50,91T604,1316q0,94-14,144t-41,69.5T484,1549q-45,0-71-23.5t-36.5-75T366,1314v-53H107v55q0,236 83,350t288,114q200,0 293-116t93-348q0-139-43-239.5T683,941q70-32 110-94t57-148.5T867,503q0-257-90.5-390T469-20Z" />
      <glyph unicode="4" glyph-name="gid133" horiz-adv-x="951" d="M524,0V310H90V507L477,1760H763V526H899V310H763V0H524ZM297,526H524v869L297,526Z" />
      <glyph unicode="5" glyph-name="gid134" horiz-adv-x="951" d="M471-20Q347-20 270,24.5t-112.5,126T122,343V564H373V371q0-69 17-115.5T471,209q57,0 78.5,43T571,382V832q0,86-18,138.5T473,1023q-50,0-77-42T369,852L133,872v888H784V1520H380V1163q19,38 69,60.5T557,1246q106,0 165.5-62t84-190T831,668V632q0-166-11-289T773.5,139.5T666,19.5T471-20Z" />
      <glyph unicode="6" glyph-name="gid135" horiz-adv-x="951" d="M499-21Q377-21 299,16.5T178,125T118.5,297.5T102,527v723q0,201 44,317t132.5,165T502,1781q117,0 192.5-43T807,1597.5T845,1336v-91H595v36q0,99-6,157.5t-28.5,84T489,1548q-51,0-76.5-26.5t-34-87T370,1270V1019q29,40 82,61.5T569,1103q120,2 188-56.5T853,871t28-291V483q0-165-32.5-277.5T733.5,36T499-21Zm0,233q48,0 75,20t37.5,68.5T622,434V601q0,98-10.5,157T575,844t-71,27q-38,0-66.5-13.5t-46-34.5T370,777V459q0-85 11.5-139.5t40-81T499,212Z" />
      <glyph unicode="7" glyph-name="gid136" horiz-adv-x="951" d="M208,0q18,242 63.5,454.5T376,853t117,350q43,134 74.5,219T604,1526H104v234H881V1566q-9-80-65-210.5T704,1046q-46-142-88-307.5T543.5,388T500,0H208Z" />
      <glyph unicode="8" glyph-name="gid137" horiz-adv-x="951" d="M479-21Q287-21 191,90.5T95,431V557q0,89 17,169t49.5,141.5T241,961q-74,53-107.5,153T100,1341q0,230 89.5,335T479,1781q204,0 290.5-102.5T856,1341q0-129-32.5-228.5T716,961q45-32 76.5-94t48-142T857,557V436q0-232-92.5-344.5T479-21Zm1,229q50,0 73.5,24.5t30,76.5T590,442V586q0,131-26.5,200.5T480,856q-54,0-86.5-68.5T361,585V438q0-121 21-175.5T480,208Zm-2,825q35,0 59.5,23.5t38,85T589,1317q0,113-11,167.5T543,1556t-65,17q-39,0-63.5-19.5T379,1479t-11-164q0-114 12.5-175t37.5-84t60-23Z" />
      <glyph unicode="9" glyph-name="gid138" horiz-adv-x="951" d="M441-20Q331-20 253.5,22.5T135,162.5T94,423v96H347V482q0-106 8.5-165t33-83T460,210q50,0 70,30.5T553.5,335T557,498V701q-25-16-65.5-26.5T394,664q-123,0-194.5,60.5T97.5,901T67,1184v64q0,124 16.5,222.5t58,168t116.5,106T450,1781q122,0 196.5-36T759,1639.5t51-172T823,1233V530q0-201-39-321.5T660.5,34T441-20Zm3,904q34,0 55.5,5t35,13T557,920v384q0,123-22,183.5T446,1548q-48,0-73-27.5T338.5,1438T329,1301V1144q0-94 9.5-151T373,910t71-26Z" />
      <glyph unicode=":" glyph-name="gid150" horiz-adv-x="555" d="M136,1038v269H419V1038H136Zm0-768V539H419V270H136Z" />
      <glyph unicode=";" glyph-name="gid151" horiz-adv-x="561" d="M184-107l78,362H132V533H435V264L326-107H184ZM136,1038v269H419V1038H136Z" />
      <glyph unicode="&lt;" glyph-name="gid208" horiz-adv-x="730" d="M638,238L65,607V899l573,365V989L242,753L638,510V238Z" />
      <glyph unicode="=" glyph-name="gid206" horiz-adv-x="722" d="M104,549V738H618V549H104Zm0,343v184H618V892H104Z" />
      <glyph unicode="&gt;" glyph-name="gid207" horiz-adv-x="730" d="M90,238V513L486,749L90,992v272L664,898V605L90,238Z" />
      <glyph unicode="?" glyph-name="gid155" horiz-adv-x="897" d="M251,494V810q107,27 167,65.5t87.5,98T540,1122t7,218q0,106-9,157.5T469,1549q-65,0-76.5-51T381,1336V1160H120v216q0,81 16,153.5T191,1659t105.5,89.5T465,1781q114,0 183.5-33T754,1651.5t48.5-156T815,1283q0-173-24-291.5t-94.5-193T487,684V494H251ZM257,0V299H489V0H257Z" />
      <glyph unicode="@" glyph-name="gid186" horiz-adv-x="1502" d="M1165,10Q937-71 744-54.5T409,69.5t-220.5,301T110,836q0,218 41,391.5T276.5,1523t217,187T809,1775q194,0 323.5-102T1327,1378t65-468q0-159-32.5-279t-98-186.5T1096,378q-61,0-118,56.5T897,597q-19-111-55-173.5T732,361q-73,0-132.5,49.5T505,561.5T470,818q0,89 14,182.5T533,1173t99,127t163.5,48t242.5-65V759q0-94 15.5-154.5T1111,544q36,0 61,35.5t38,122T1223,942q0,129-18.5,248.5t-65.5,214T1008.5,1554T796,1609q-176,0-284-93.5T355,1248T306,833q0-226 54.5-382.5T521.5,210T783,117.5T1138,178l27-168ZM758,531q38,0 62.5,34.5t37,91.5T870,779v401q-67,27-111,12t-69.5-65t-36-127.5T643,824q0-140 26.5-216.5T758,531Z" />
      <glyph unicode="A" glyph-name="gid1" horiz-adv-x="927" d="M28,0L279,1760H633L900,0H650L608,314H324L286,0H28ZM350,529H580L462,1413h-4L350,529Z" />
      <glyph unicode="B" glyph-name="gid10" horiz-adv-x="984" d="M132,0V1760H513q133,0 212-40.5t114.5-128T875,1362v-54q0-137-35.5-225.5T721,959q69-23 110.5-82.5t59.5-145T909,544V499q-1-176-41-286.5T743,51T521,0H132ZM400,208h95q53,0 84.5,23.5T625,310t14,150V602q0,128-24.5,186.5T513,847H400V208Zm0,840h99q35,0 57,10t34,34.5t16.5,68.5t4.5,112v106q0,71-13,108t-39.5,50T490,1550H400V1048Z" />
      <glyph unicode="C" glyph-name="gid11" horiz-adv-x="969" d="M493-20Q365-20 280,39T152.5,211.5T110,486v767q0,121 20,218t65,166t120,106t185,37q100,0 170.5-32.5t115-93.5t65-147.5T871,1312V1070H612v225q0,130-22,191.5T502,1548q-73,0-97.5-66.5T380,1296V474q0-92 10.5-150.5t35.5-86T496,210q68,0 92,64t24,203V729H875V480q0-167-39-278.5T712.5,35T493-20Z" />
      <glyph unicode="D" glyph-name="gid13" horiz-adv-x="1008" d="M132,0V1760H527q134,0 215-53.5T859.5,1552T896,1308l1-794q0-173-37.5-287.5T739,56T518,0H132ZM400,208h88q47,0 78.5,19t47,67.5T629,432l-1,869q0,135-33,194t-116,59H400V208Z" />
      <glyph unicode="E" glyph-name="gid15" horiz-adv-x="800" d="M132,0V1760H722V1529H400V1017H706V791H400V231H734V0H132Z" />
      <glyph unicode="F" glyph-name="gid20" horiz-adv-x="791" d="M132,0V1760H736V1527H400V1059H712V825H400V0H132Z" />
      <glyph unicode="G" glyph-name="gid21" horiz-adv-x="1000" d="M463-18Q304-18 207,107.5T110,515v765q0,118 22.5,211t70,157.5t123.5,98T509,1780q116,0 189-34.5t112.5-100T865,1485t15-215V1145H630v184q0,119-24.5,169T513,1548q-75,0-104-58.5T380,1282V519q0-166 24.5-237.5T507,210q76,0 107.5,73.5T646,529V766H511V961H880V0H760L719,173Q697,82 625.5,32T463-18Z" />
      <glyph unicode="H" glyph-name="gid22" horiz-adv-x="1040" d="M132,0V1760H400V1048H640v712H908V0H640V818H400V0H132Z" />
      <glyph unicode="I" glyph-name="gid23" horiz-adv-x="543" d="M138,0V1760H406V0H138Z" />
      <glyph unicode="J" glyph-name="gid28" horiz-adv-x="946" d="M449-20Q276-20 179.5,83.5T83,389V703H342V402q0-52 6.5-96T376,236t65-26t65,25.5t28,72T541,418V1760H809V431q0-217-95.5-334T449-20Z" />
      <glyph unicode="K" glyph-name="gid29" horiz-adv-x="981" d="M132,0V1760H400V950l268,810H945L653,892L968,0H685L402,822V0H132Z" />
      <glyph unicode="L" glyph-name="gid30" horiz-adv-x="752" d="M132,0V1760H400V228H739V0H132Z" />
      <glyph unicode="M" glyph-name="gid32" horiz-adv-x="1418" d="M132,0V1760H465L715,474L950,1760h335V0H1046V656l10,602L819,8H606L359,1258l10-602V0H132Z" />
      <glyph unicode="N" glyph-name="gid33" horiz-adv-x="1069" d="M132,0V1760H342L715,704l-19,480v576H937V0H747L364,1093l15-462V0H132Z" />
      <glyph unicode="O" glyph-name="gid35" horiz-adv-x="999" d="M502-20Q365-20 278.5,38T151,210T110,492v805q0,152 40,260t127,166t228,58q106,0 179-33t118-95.5t65.5-152T888,1297V492q0-168-39.5-282T724,38T502-20Zm0,232q50,0 75,30t33.5,91.5T619,489v820q0,115-21.5,177.5T505,1549q-73,0-99-60.5T380,1310V489q0-96 8.5-157.5t35-90.5T502,212Z" />
      <glyph unicode="P" glyph-name="gid43" horiz-adv-x="943" d="M132,0V1760H536q105,0 174.5-32T820,1633t57-155.5T894,1264v-37q0-170-29.5-289.5T759,756T545,694H400V0H132ZM400,915h92q59,0 88,30t38.5,99.5T628,1230v34q-1,143-25,216.5T494,1554H400V915Z" />
      <glyph unicode="Q" glyph-name="gid45" horiz-adv-x="999" d="M716-292L452-5L622,87L848-177L716-292ZM502-20Q365-20 278.5,38T151,210T110,492v805q0,152 40,260t127,166t228,58q106,0 179-33t118-95.5t65.5-152T888,1297V492q0-168-39.5-282T724,38T502-20Zm0,232q50,0 75,30t33.5,91.5T619,489v820q0,115-21.5,177.5T505,1549q-73,0-99-60.5T380,1310V489q0-96 8.5-157.5t35-90.5T502,212Z" />
      <glyph unicode="R" glyph-name="gid46" horiz-adv-x="991" d="M132,0V1760H575q138,0 206-54t89.5-158T892,1294q0-155-31.5-243.5T732,932q46-8 77-37.5t50-86t27.5-145T895,447q0-10 0-56t0.5-108.5T897,158t3-106t5-52H637q-3,5-4.5,51.5t-3,118.5t-2,155T627,488.5T627,631q0,79-11.5,119.5t-42,56.5T486,826l-86,5V0H132ZM401,1039H508q49,0 74.5,22t35,81t9.5,170v11q0,93-9,143t-37.5,69T492,1554H401V1039Z" />
      <glyph unicode="S" glyph-name="gid47" horiz-adv-x="875" d="M453-20Q343-20 269.5,14.5t-116,101T93,277.5T75,495V652H329V475q0-142 24-204t95-62q48,0 72.5,22.5t33,72T562,433q0,99-41.5,181T395,784L265,918q-54,56-97.5,119t-69,140.5T73,1351q0,139 34,235t115,145.5T444,1781q106,0 174.5-32.5t107-95t54.5-152T796,1297V1188H549v126q0,80-8.5,133T509,1526.5T442,1553q-42,0-68-18.5t-37.5-57T325,1378q0-55 14-95t43-77t72-83L599,966Q703,854 761,733t58-270q0-158-34-265.5T671,35T453-20Z" />
      <glyph unicode="T" glyph-name="gid48" horiz-adv-x="707" d="M224,0V1528H18v232H689V1528H491V0H224Z" />
      <glyph unicode="U" glyph-name="gid49" horiz-adv-x="1013" d="M508-20Q371-20 285,31.5t-126,156T119,452V1760H387V457q0-74 6.5-130T425,240t82-31t82.5,30.5T621,326t6,131V1760H895V452q0-160-39.5-264.5t-125-156T508-20Z" />
      <glyph unicode="V" glyph-name="gid54" horiz-adv-x="930" d="M311,0L38,1760H293L408,965l71-560h7l61,560l96,795H893L642,0H311Z" />
      <glyph unicode="W" glyph-name="gid55" horiz-adv-x="1360" d="M261,0L46,1760H286L415,506L579,1760H795L960,506l114,1254h241L1113,0H846L690,1170L528,0H261Z" />
      <glyph unicode="X" glyph-name="gid56" horiz-adv-x="897" d="M41,0L312,944L42,1760H268l175-523l141,523H835L569,859L856,0H624L445,541L300,0H41Z" />
      <glyph unicode="Y" glyph-name="gid57" horiz-adv-x="878" d="M312,0V703L17,1760H273l174-658h4l155,658H861L580,703V0H312Z" />
      <glyph unicode="Z" glyph-name="gid59" horiz-adv-x="748" d="M63,0V238L428,1529H96v231H709V1543L344,231H701V0H63Z" />
      <glyph unicode="[" glyph-name="gid172" horiz-adv-x="764" d="M179,0V1760H650V1552H445V209H650V0H179Z" />
      <glyph unicode="\" glyph-name="gid162" horiz-adv-x="868" d="M507,0L96,1760H334L744,0H507Z" />
      <glyph unicode="]" glyph-name="gid173" horiz-adv-x="764" d="M135,0V209H340V1552H135v208H606V0H135Z" />
      <glyph unicode="^" glyph-name="gid212" horiz-adv-x="1030" d="M114,836l241,924H674L915,836H659L515,1548L371,836H114Z" />
      <glyph unicode="_" glyph-name="gid167" horiz-adv-x="748" d="M48-211V-28H699V-211H48Z" />
      <glyph unicode="`" glyph-name="gid228" horiz-adv-x="459" d="M253,1640L50,2053H315l94-413H253Z" />
      <glyph unicode="a" glyph-name="gid60" horiz-adv-x="970" d="M376-15Q222-15 162.5,97T101,394v96q0,120 34.5,195T234,807t153,82t198,75v131q0,76-6,121.5T552,1283t-65,21q-43,0-65.5-21.5t-30.5-66T383,1103v-67H121v45q0,103 17.5,184T198,1402.5t114.5,86T495,1518q97,0 166-27.5t112-82T836,1272t20-191V0H589V149q-12-43-41-80.5T475.5,8T376-15Zm92,204q50,0 80,36t37,73V814q-60-27-101-50.5T418,712t-36-66t-11-93V385q0-103 21.5-149.5T468,189Z" />
      <glyph unicode="b" glyph-name="gid68" horiz-adv-x="998" d="M608-15q-67,0-121.5,36.5T400,140V0H135V1775H400V1392q23,59 78,92t110,34q119,2 184-55.5T862.5,1303T888,1069V434q0-127-25-229T777,44T608-15ZM519,197q69,0 86,66.5T622,459v614q0,68-6.5,120T588,1274.5T521,1304q-41,0-68-20t-40-70t-13-140V456q0-124 21.5-191.5T519,197Z" />
      <glyph unicode="c" glyph-name="gid69" horiz-adv-x="938" d="M494-18Q379-18 304,17.5T186.5,120T127,283T110,500V986q0,166 31,285t114.5,183T497,1518q97,0 164-30t108-86.5T828.5,1265T847,1085V920H591v174q0,65-6,111.5t-27,71T491,1301q-45,0-70-25t-34.5-72.5T377,1090V414q0-68 8.5-116t32-73.5T487,199q45,0 67.5,26.5T584,300t7,113V591H847V439q0-103-18-187.5T770,107T661,14.5T494-18Z" />
      <glyph unicode="d" glyph-name="gid71" horiz-adv-x="998" d="M386-15Q264-15 205,50.5T128,228T110,479v611q0,121 29,217.5T233.5,1461T407,1518q64,0 115-30.5t79-80.5v368H866V0H601V139Q571,63 517,24T386-15Zm98,211q48,0 73.5,28.5t35,88T602,463v600q0,110-21.5,175T488,1303q-68,0-89.5-63.5T377,1060V443q0-77 9.5-132.5t32.5-85T484,196Z" />
      <glyph unicode="e" glyph-name="gid73" horiz-adv-x="945" d="M481-18Q368-18 295.5,18t-113,104T126,285.5T110,499v559q0,105 21.5,190t67,145T317,1485.5T493,1518q105,0 175-32t110.5-93t58-146.5T854,1053V732H377V437q0-109 17-175t93-66q51,0 72.5,31t26,85.5T590,437V569H852V489q0-121-14.5-215t-54-159T671,16T481-18ZM376,887H590v192q0,75-7,126.5T555,1283t-64,26q-53,0-77.5-31t-31-84.5T376,1072V887Z" />
      <glyph unicode="f" glyph-name="gid78" horiz-adv-x="660" d="M182,0V1250H66v191H183v78q0,126 65,195.5T434,1784q62,0 107.5-9.5T599,1760V1593q-29,4-60,4q-51,0-71.5-21T447,1511v-70H599V1250H447V0H182Z" />
      <glyph unicode="g" glyph-name="gid79" horiz-adv-x="990" d="M469-225q-124-2-211,23.5T100-118L193,49Q246,15 308.5-6.5T444-27q76,1 116,53t40,139V284q-26-75-79.5-103T391,153q-106,0-166.5,56T139,362T114,582v483q0,131 26,233.5T229,1460t173,58q77,0 127.5-39T600,1367v133H865V185q0-89-20-163.5t-66-129t-122-85T469-225Zm27,579q36,0 59,21.5t34,74T600,596v491q0,99-24,158t-87,59q-48,0-71-28t-30-76.5T381,1088V594q0-111 21-175.5T496,354Z" />
      <glyph unicode="h" glyph-name="gid80" horiz-adv-x="1020" d="M135,0V1775H400V1328q20,77 80.5,133.5T633,1518q131,0 197.5-86.5T897,1181V0H633V1156q0,72-27.5,108.5T527,1301q-41,0-69.5-23t-43-65T400,1115V0H135Z" />
      <glyph unicode="i" glyph-name="gid81" horiz-adv-x="537" d="M136,0V1500H401V0H136Zm-1,1638v230H402V1638H135Z" />
      <glyph unicode="j" glyph-name="gid87" horiz-adv-x="556" d="M221-197q-56,0-96,5T60-180V5Q71,3 81.5,2T105,1q36,0 49.5,20T168,69V1500H433V79q0-94-26-155t-73.5-91T221-197ZM164,1638v230H431V1638H164Z" />
      <glyph unicode="k" glyph-name="gid89" horiz-adv-x="961" d="M135,0V1775H400V818l256,682H925L636,762L942,0H672L400,713V0H135Z" />
      <glyph unicode="l" glyph-name="gid90" horiz-adv-x="531" d="M132,0V1775H396V0H132Z" />
      <glyph unicode="m" glyph-name="gid92" horiz-adv-x="1504" d="M131,0V1500H396V1337q22,80 80.5,130.5T636,1518q77,0 134-34t88-117q38,70 100,110.5t155,40.5q146,0 207-98t61-271V0H1117V1152q0,80-27,114.5t-74,34.5q-60,0-93.5-41.5T889,1138V0H624V1154q0,67-22.5,107T526,1301q-69,0-99.5-52.5T396,1124V0H131Z" />
      <glyph unicode="n" glyph-name="gid93" horiz-adv-x="1020" d="M131,0V1500H396V1328q20,77 84,133.5T637,1518q130,0 195-86.5T897,1181V0H632V1165q0,65-29.5,102T522,1304q-41,0-69.5-22.5t-42.5-62T396,1127V0H131Z" />
      <glyph unicode="o" glyph-name="gid95" horiz-adv-x="970" d="M486-18Q378-18 305,15.5t-115.5,97t-61,155T110,476v561q0,141 36.5,249.5t119.5,170T486,1518q104,0 175.5-35t115-99.5T840,1231t20-194V476q0-115-17.5-206t-60-155.5T668,16T486-18Zm0,214q45,0 68,27.5T585,300t8,113v671q0,68-9,117t-32,76t-66,27q-45,0-68.5-27t-32-76T377,1084V413q0-64 8.5-113t32-76.5T486,196Z" />
      <glyph unicode="p" glyph-name="gid103" horiz-adv-x="998" d="M132-285V1500H397V1365q29,74 91,112t125,38q115,0 174-61.5T867,1286t21-238V501q0-144-20-262T783.5,51.5T587-18q-61,0-111,33T397,91V-285H132ZM514,197q67,0 87,65.5T621,450v622q0,65-6.5,117.5T586,1273t-70,31q-37,0-63.5-19t-41-69T397,1073V439q0-115 22-178.5T514,197Z" />
      <glyph unicode="q" glyph-name="gid105" horiz-adv-x="994" d="M597-285V102q-20-49-72-84.5T411-18Q287-18 222,47T133.5,225T110,481v567q0,132 24.5,237.5t85,167.5T389,1515q63,0 121-30.5t87-98.5v114H862V-285H597ZM478,196q42,0 68.5,21.5T585,290t12,139v634q0,122-25,181t-91,59q-68,0-86.5-64.5T376,1058V436q0-103 16-171.5T478,196Z" />
      <glyph unicode="r" glyph-name="gid106" horiz-adv-x="697" d="M132,0V1500H399V1333q26,87 90.5,136T654,1518q2,0 2.5-34t0.5-78t0-78t0-34q-46,0-99.5-11t-97-33.5T399,1190V0H132Z" />
      <glyph unicode="s" glyph-name="gid107" horiz-adv-x="862" d="M442-19Q261-19 173,84T85,421v97H334V397q0-98 24-149t78-51q52,0 77,35t25,121q0,50-14.5,97t-45,92.5T400,631L265,753q-93,84-139,181.5T80,1150q0,191 89.5,279.5T435,1518q114,0 189-42.5T736,1338t37-255v-82H536v99q0,99-22.5,150T437,1301q-53,0-78-29.5T332,1168q-1-40 10-78.5t34.5-75T438,943L580,814Q692,713 745.5,603T799,365q0-189-86-286.5T442-19Z" />
      <glyph unicode="t" glyph-name="gid109" horiz-adv-x="638" d="M402-10q-96,0-147,24.5T185,92T166,229V1277H44v192H166v291H431V1469H577V1277H431V275q0-35 11-53t43.5-24t96.5-6V-10H402Z" />
      <glyph unicode="u" glyph-name="gid110" horiz-adv-x="1010" d="M389-19q-89,0-148.5,40t-89,119.5T122,340V1500H388V381q0-86 21-134t88-48q70,0 95.5,54.5T618,379l1,1121H883V0H618V156Q590,80 537,30.5T389-19Z" />
      <glyph unicode="v" glyph-name="gid115" horiz-adv-x="852" d="M264,0L47,1500H297l97-798l33-359h20l28,360l83,797H806L589,0H264Z" />
      <glyph unicode="w" glyph-name="gid116" horiz-adv-x="1258" d="M250,0L49,1500H272l76-633l34-322h6l33,323l89,632h75H689h57l98-620l42-335h6l29,334l67,621h222L1020,0H788L636,1127L474,0H250Z" />
      <glyph unicode="x" glyph-name="gid117" horiz-adv-x="840" d="M27,0L294,783L44,1500H279l154-433l132,433H799L545,755L814,0H568L411,449L272,0H27Z" />
      <glyph unicode="y" glyph-name="gid118" horiz-adv-x="859" d="M89-265V-82h87q44,0 74,7.5T284-42q7,13 5,46.5T283,68L43,1500H295l96-767l40-404h22l36,404l88,767H828L568-64q-11-71-30.5-115.5t-58.5-65T371-265H89Z" />
      <glyph unicode="z" glyph-name="gid121" horiz-adv-x="732" d="M73,0V200L403,1273H98v227H672V1309L344,222H658V0H73Z" />
      <glyph unicode="{" glyph-name="gid170" horiz-adv-x="798" d="M614-121q-124,0-199,30T306,12.5T272,217V492q0,85-7.5,132T228,690.5T133,710V950q66,0 95,19.5t36.5,67T272,1168v275q0,131 34,204.5T415,1751t199,30h60V1582q-60,0-90-12t-39.5-45t-9.5-95V1184q0-126-12-195.5t-46-104T376,830q67-20 101-54.5t46-104T535,476V230q0-62 9.5-95T584,90t90-12V-121H614Z" />
      <glyph unicode="|" glyph-name="gid194" horiz-adv-x="537" d="M150-84V1863H393V-84H150Z" />
      <glyph unicode="}" glyph-name="gid171" horiz-adv-x="798" d="M133-121V78q61,0 90.5,12t39,45t9.5,95V476q0,126 12,195.5t46.5,104T432,830q-67,20-101.5,54.5T284,988.5T272,1184v246q0,62-9.5,95t-39,45T133,1582v199h60q124,0 199-30t109-103.5T535,1443V1168q0-84 7.5-131.5t37-67T674,950V710q-65,0-94.5-19.5t-37-66.5T535,492V217q0-131-34-204.5T392-91T193-121H133Z" />
      <glyph unicode="~" glyph-name="gid210" horiz-adv-x="1117" d="M272,821L100,903q38,127 98.5,196.5T347,1169q39,0 95-14.5t114-34t106.5-34T735,1072q15,2 42,26t46,85l186-42q-8-30-29.5-84.5T925,945t-73.5-96T766,810q-43,0-95.5,15.5T563.5,862T458,898.5T367,914q-36,0-55.5-23T272,821Z" />
      <glyph unicode="&#xa0;" glyph-name="gid147" horiz-adv-x="367" />
      <glyph unicode="&#xa1;" glyph-name="gid154" horiz-adv-x="525" d="M327,1101L416-236H132l85,1337H327Zm78,423V1268H145v256H405Z" />
      <glyph unicode="&#xa2;" glyph-name="gid197" horiz-adv-x="788" d="M416,1511v255H529V1509l-113,2Zm0-1762V4H529V-251H416ZM494-18Q379-18 304,17.5T186.5,120T127,283T110,500V986q0,166 31,285t114.5,183T497,1518q97,0 164-30t108-86.5T828.5,1265T847,1085V920H591v174q0,65-6,111.5t-27,71T491,1301q-45,0-70-25t-34.5-72.5T377,1090V414q0-68 8.5-116t32-73.5T487,199q45,0 67.5,26.5T584,300t7,113V591H847V439q0-103-18-187.5T770,107T661,14.5T494-18Z" />
      <glyph unicode="&#xa3;" glyph-name="gid200" horiz-adv-x="1077" d="M82,0V205q61,27 108.5,65t80,89.5t49.5,119T337,631q0,36-3.5,75.5T322,783H92V973H281l-53,155q-30,89-46,153.5T166,1389q0,187 104.5,289.5T592,1781q122,0 204.5-43.5T921,1605t42-224V1246H719v147q0,55-14.5,93.5T660,1546t-75,21q-50,0-88-14t-59-47.5T417,1414q0-48 17-111t40-139l58-191H865V783H582q8-41 12.5-82.5T599,622q0-101-22-180T514,308.5T415,226H954V0H82Z" />
      <glyph unicode="&#xa4;" glyph-name="gid198" horiz-adv-x="1159" d="M274,509L125,659l91,91q-53,98-53,214q0,117 52,214l-90,90l149,150l87-88q97,55 218,55t218-54l87,87l150-149l-90-90q54-97 54-215T944,748l90-90L884,509l-89,88q-92-52-216-52T363,598l-89-89ZM579,741q64,0 110.5,30.5T762,853t26,113q0,95-56,157.5T579,1186q-63,0-109.5-30T397,1076T371,964t25.5-112.5T469,771t110-30Z" />
      <glyph unicode="&#xa5;" glyph-name="gid201" horiz-adv-x="866" d="M94,315V468H340V619H94V770H774V619H550V468H774V315H94ZM312,0V703L17,1760H273l174-658h4l155,658H861L580,703V0H312Z" />
      <glyph unicode="&#xa6;" glyph-name="gid195" horiz-adv-x="530" d="M122-84V724H408V-84H122Zm0,1015v829H408V931H122Z" />
      <glyph unicode="&#xa7;" glyph-name="gid189" horiz-adv-x="950" d="M488-20Q311-20 211.5,66T112,360v31H409V361q0-90 26-115.5T497,220q35,0 52,18t17,65q0,43-33.5,80.5t-86,76T336,542l-66,50q-59,45-102,109.5T125,862q0,74 31,149t92,132q-61,56-92,133.5T125,1433q0,115 50,192t132.5,116.5T487,1781q171,0 266-86t95-287v-36H578v41q0,74-19.5,101.5T497,1542q-31,0-49.5-10.5t-27-31T412,1451q0-26 21-57t53.5-60.5T552,1281l88-61q50-34 98.5-82t81-112T852,879q0-49-21-99.5t-55.5-97T700,598q71-65 113-133.5T855,293q0-151-98.5-232T488-20Zm53,755q18,30 31.5,63T586,856t-15,53t-50,55.5T426,1017q-22-32-33.5-61T381,902q0-40 24.5-72.5t61.5-56T541,735Z" />
      <glyph unicode="&#xa8;" glyph-name="gid227" horiz-adv-x="866" d="M534,1640v226H816V1640H534Zm-484,0v226H332V1640H50Z" />
      <glyph unicode="&#xa9;" glyph-name="gid190" horiz-adv-x="1466" d="M733,204q-140,0-259.5,49.5t-209,139t-139,209T76,861t49.5,259.5t139,209t209,139T733,1518t259.5-49.5t209-139t139-209T1390,861t-49.5-259.5t-139-209t-209-139T733,204Zm0,129q108,0 199,41t158,114t104,168.5T1231,861q0,146-64.5,265.5T990,1317.5T733,1389q-108,0-199-41T376,1234T272,1065.5T235,861q0-145 64.5-265t177-191.5T733,333Zm-1,90q-104,0-169.5,59T497,647v401q0,126 57.5,191T736,1304q101,0 156-49.5T947,1104V951H782v101q0,38-11.5,57.5T736,1129q-28,0-36-17.5t-8-46.5V656q0-22 11.5-43.5T736,591q23,0 34.5,16.5T782,656V805H951V642q0-109-48.5-164T732,423Z" />
      <glyph unicode="&#xaa;" glyph-name="gid127" horiz-adv-x="927" d="M386,558q-122,0-170,88.5T166,882v79q0,96 27,156.5t78,98t122.5,66T553,1343v42q0,62-2,113t-18.5,81.5T473,1610q-49,0-65.5-36.5T391,1454v-58H183v36q0,82 14,146.5T244,1688t91,68.5T481,1780q104,0 166.5-41t91-120.5T767,1423V570H555V680q-10-39-56-80.5T386,558Zm73,168q40,0 63.5,29T552,813v397q-65-28-102.5-52.5t-53-59T381,1004V883q0-82 17.5-119.5T459,726Z" />
      <glyph unicode="&#xab;" glyph-name="gid180" horiz-adv-x="1304" d="M1133,327L642,612V887l491,271V890L821,749l312-150V327Zm-554,0L88,612V887l491,271V890L267,749L579,599V327Z" />
      <glyph unicode="&#xac;" glyph-name="gid211" horiz-adv-x="947" d="M602,439V743H97V979H826V439H602Z" />
      <glyph unicode="&#xad;" glyph-name="gid164" horiz-adv-x="696" d="M90,509V741H606V509H90Z" />
      <glyph unicode="&#xae;" glyph-name="gid191" horiz-adv-x="1502" d="M529,430v852H818q99,0 133.5-54T986,1082v-39q0-69-18-111t-72-59q40-7 59.5-38T975,751V430H791V762q0,25-7.5,37T760,814.5T719,818V430H529ZM720,965h48q19,0 28,19.5t9,58.5q0,53-16,67t-69,14V965Zm31-631q108,0 199,41t158,114t104,168.5T1249,862q0,146-64.5,265.5t-176.5,191T751,1390q-108,0-199-41T394,1235T290,1066.5T253,862q0-145 64.5-265t177-191.5T751,334Zm0-129q-140,0-259.5,49.5t-209,139t-139,209T94,862t49.5,259.5t139,209t209,139T751,1519t259.5-49.5t209-139t139-209T1408,862t-49.5-259.5t-139-209t-209-139T751,205Z" />
      <glyph unicode="&#xaf;" glyph-name="gid233" horiz-adv-x="656" d="M50,1690v182H606V1690H50Z" />
      <glyph unicode="&#xb0;" glyph-name="gid193" horiz-adv-x="915" d="M457,1099q-107,0-186.5,40.5t-123,116T104,1437t43.5,181.5t123,116T457,1775t186.5-40.5t123.5-116T811,1437q0-105-44-181T643.5,1139.5T457,1099Zm1,181q45,0 76.5,21t48.5,57t17,79q0,44-17,79.5T534.5,1573T458,1594q-44,0-76-21t-49-56.5T316,1437q0-43 17-79t49-57t76-21Z" />
      <glyph unicode="&#xb1;" glyph-name="gid209" horiz-adv-x="854" d="M336,475V708H118V885H336v231H518V885H738V708H518V475H336ZM156,112V295H672V112H156Z" />
      <glyph unicode="&#xb2;" glyph-name="gid140" horiz-adv-x="831" d="M185,565v62q0,43 14.5,96.5T238,836t53.5,118t60,112t58,94.5T456,1226q26,41 40.5,103.5T511,1455q0,66-9,102t-25,50t-38,14t-38.5-14t-26-51.5T365,1448V1294H183l-1,74q0,133 18.5,224.5T276,1732t171,48q66,0 112.5-26t75.5-71.5t42.5-105T691,1450q0-96-24-174.5T605,1129T524.5,996.5T445,864T387,716H678V565H185Z" />
      <glyph unicode="&#xb3;" glyph-name="gid141" horiz-adv-x="856" d="M424,602q-145,0-205.5,81T158,927v78H344V926q0-91 16-130.5T432,756q57,0 72,47t15,143q0,105-24.5,158T395,1157H366v140h26q47,2 74.5,18t40,53.5T519,1472q0,61-10.5,94T479,1612t-45,13q-31,0-49-15.5T359.5,1560t-7.5-91v-28H164l-1,33q1,156 63,230t208,74q143,0 210.5-76T712,1474q0-91-26.5-154.5T592,1233q74-31 98.5-105.5T715,945q0-169-68-256T424,602Z" />
      <glyph unicode="&#xb4;" glyph-name="gid229" horiz-adv-x="459" d="M50,1640l94,413H409L206,1640H50Z" />
      <glyph unicode="&#xb5;" glyph-name="gid213" horiz-adv-x="1010" d="M389-19q-89,0-148.5,40t-89,119.5T122,340V1500H388V381q0-86 21-134t88-48q70,0 95.5,54.5T618,379l1,1121H883V0H618V156Q590,80 537,30.5T389-19ZM122,483H389V-265H122V483Z" />
      <glyph unicode="&#xb6;" glyph-name="gid188" horiz-adv-x="1119" d="M442,0V1087q-168,19-250.5,102T109,1437q0,100 34,163.5t101,98t166.5,48T641,1760H973V0H779V1527H636V0H442Z" />
      <glyph unicode="&#xb7;" glyph-name="gid157" horiz-adv-x="480" d="M132,750V995H363V750H132Z" />
      <glyph unicode="&#xb8;" glyph-name="gid234" horiz-adv-x="536" d="M199-638q-78,0-149,26v111q95,0 144.5,20t68,52.5T281-359q0,68-49,109T121-196L161,0h82l15-141q113-39 170.5-107T486-396q0-63-33.5-118T355-603.5T199-638Z" />
      <glyph unicode="&#xb9;" glyph-name="gid139" horiz-adv-x="628" d="M238,564v964q-32-24-76-36.5T76,1479v130q39,3 86.5,23t85,53t47.5,75H444V564H238Z" />
      <glyph unicode="&#xba;" glyph-name="gid128" horiz-adv-x="908" d="M464,555q-115,0-182,47T187,737.5T159,950v446q0,112 28.5,198.5t95.5,136T464,1780q118,0 183.5-49t92-135.5T766,1396V950q0-121-27-210T646,603T464,555Zm0,170q47-1 67,45.5T551,899v535q0,81-17.5,128T464,1609q-54,0-71.5-47T375,1434V899q0-79 20-126t69-48Z" />
      <glyph unicode="&#xbb;" glyph-name="gid181" horiz-adv-x="1304" d="M704,327V599l312,150L704,890v268l491-271V612L704,327Zm-553,0V599L463,749L151,890v268L641,887V612L151,327Z" />
      <glyph unicode="&#xbc;" glyph-name="gid144" horiz-adv-x="1535" d="M423,0L923,1767h189L612,0H423ZM232,551v915q-28-23-66.5-35T90,1419v119q34,3 74.5,21.5t73,49.5t42.5,71H412V551H232ZM1191,0V192H902V306l225,759h223V324h69V192h-69V0H1191ZM1050,324h141V864L1050,324Z" />
      <glyph unicode="&#xbd;" glyph-name="gid143" horiz-adv-x="1620" d="M423,0L923,1767h189L612,0H423ZM232,551v915q-28-23-66.5-35T90,1419v119q34,3 74.5,21.5t73,49.5t42.5,71H412V551H232ZM1057,0V58q0,50 16,122.5T1131,322l182,302q23,38 37.5,98T1365,842q0,64-8.5,98.5t-24,48T1296,1002q-20,0-36.5-13.5t-25.5-50T1225,834V689H1055l-1,70q0,125 17.5,212t71,132t161.5,45q83,0 133.5-43t73-113.5T1533,836q0-78-15.5-144.5T1469,570L1322,325q-25-43-44-89t-33-98h276V0H1057Z" />
      <glyph unicode="&#xbe;" glyph-name="gid145" horiz-adv-x="1555" d="M474,0L974,1767h189L663,0H474ZM316,598q-124,0-178.5,75T83,899v70H243V899q0-87 14-124.5T322,737t65,44t14,135q0,101-22.5,150T290,1115H265v135h21q39,1 64.5,13.5t38,46T401,1407q0,59-10,90.5T363.5,1541T323,1553q-27,0-43-14.5t-23-47t-7-87.5v-26H88v30q0,145 55.5,214T323,1691q122,0 180-71.5T561,1408q0-85-23-144.5T456,1183q64-29 86-98.5T564,915q0-156-58.5-236.5T316,598ZM1211,0V192H922V306l225,759h223V324h69V192h-69V0H1211ZM1070,324h141V864L1070,324Z" />
      <glyph unicode="&#xbf;" glyph-name="gid156" horiz-adv-x="1044" d="M725,1004V688q-107-27-167-65.5t-87.5-98T436,376t-7-218q0-106 9-157.5T507-51q65,0 76.5,51T595,162V338H856V122q0-81-16-153.5T785-161T679.5-250.5T511-283q-114,0-183.5,33T222-153.5T173.5,2.5T161,215q0,173 24,291.5t94.5,193T489,814v190H725Zm-6,494V1199H487v299H719Z" />
      <glyph unicode="&#xc0;" glyph-name="gid6" horiz-adv-x="927" d="M28,0L279,1760H633L900,0H650L608,314H324L286,0H28ZM350,529H580L462,1413h-4L350,529Zm97,1371L244,2313H509l94-413H447Z" />
      <glyph unicode="&#xc1;" glyph-name="gid2" horiz-adv-x="927" d="M28,0L279,1760H633L900,0H650L608,314H324L286,0H28ZM350,529H580L462,1413h-4L350,529ZM305,1900l94,413H664L461,1900H305Z" />
      <glyph unicode="&#xc2;" glyph-name="gid4" horiz-adv-x="927" d="M28,0L279,1760H633L900,0H650L608,314H324L286,0H28ZM350,529H580L462,1413h-4L350,529ZM114,1900l189,337H605l188-337H540l-86,236l-86-236H114Z" />
      <glyph unicode="&#xc3;" glyph-name="gid8" horiz-adv-x="927" d="M28,0L279,1760H633L900,0H650L608,314H324L286,0H28ZM350,529H580L462,1413h-4L350,529ZM607,1900q-44,0-94,20.5t-99,41T323,1982q-16,0-23-2q-16-4-26.5-18.5T249,1921l-130,52q20,68 48,107.5t64,57t80,17.5q41,0 95.5-18.5t104.5-37t75-18.5h4q14,2 27,14t29,57l142-28l-9-48q-22-103-63.5-139.5T607,1900Z" />
      <glyph unicode="&#xc4;" glyph-name="gid5" horiz-adv-x="927" d="M28,0L279,1760H633L900,0H650L608,314H324L286,0H28ZM350,529H580L462,1413h-4L350,529ZM555,1900v226H837V1900H555Zm-484,0v226H353V1900H71Z" />
      <glyph unicode="&#xc5;" glyph-name="gid7" horiz-adv-x="927" d="M28,0L279,1760H633L900,0H650L608,314H324L286,0H28ZM350,529H580L462,1413h-4L350,529ZM454,1900q-109,0-171,64t-62,160q0,95 62,159.5T454,2348q110,0 171.5-64.5T687,2124t-61.5-159.5T454,1900Zm1,94q60,0 89.5,41t29.5,90t-29.5,89.5T455,2255q-59,0-89-40.5T336,2125t30-90t89-41Z" />
      <glyph unicode="&#xc6;" glyph-name="gid9" horiz-adv-x="1230" d="M52,0L366,1760h786V1529H874V1017h262V785H874V231h290V0H606V314H366L312,0H52ZM396,512H606V1530l-35-1L396,512Z" />
      <glyph unicode="&#xc7;" glyph-name="gid12" horiz-adv-x="969" d="M493-20Q365-20 280,39T152.5,211.5T110,486v767q0,121 20,218t65,166t120,106t185,37q100,0 170.5-32.5t115-93.5t65-147.5T871,1312V1070H612v225q0,130-22,191.5T502,1548q-73,0-97.5-66.5T380,1296V474q0-92 10.5-150.5t35.5-86T496,210q68,0 92,64t24,203V729H875V480q0-167-39-278.5T712.5,35T493-20ZM482-638q-78,0-149,26v111q95,0 144.5,20t68,52.5T564-359q0,68-49,109T404-196L444,0h82l15-141q113-39 170.5-107T769-396q0-63-33.5-118T638-603.5T482-638Z" />
      <glyph unicode="&#xc8;" glyph-name="gid19" horiz-adv-x="800" d="M132,0V1760H722V1529H400V1017H706V791H400V231H734V0H132ZM413,1900L210,2313H475l94-413H413Z" />
      <glyph unicode="&#xc9;" glyph-name="gid16" horiz-adv-x="800" d="M132,0V1760H722V1529H400V1017H706V791H400V231H734V0H132ZM271,1900l94,413H630L427,1900H271Z" />
      <glyph unicode="&#xca;" glyph-name="gid17" horiz-adv-x="800" d="M132,0V1760H722V1529H400V1017H706V791H400V231H734V0H132ZM80,1900l189,337H571l188-337H506l-86,236l-86-236H80Z" />
      <glyph unicode="&#xcb;" glyph-name="gid18" horiz-adv-x="800" d="M132,0V1760H722V1529H400V1017H706V791H400V231H734V0H132ZM521,1900v226H803V1900H521Zm-484,0v226H319V1900H37Z" />
      <glyph unicode="&#xcc;" glyph-name="gid27" horiz-adv-x="543" d="M138,0V1760H406V0H138ZM265,1900L62,2313H327l94-413H265Z" />
      <glyph unicode="&#xcd;" glyph-name="gid24" horiz-adv-x="543" d="M138,0V1760H406V0H138ZM123,1900l94,413H482L279,1900H123Z" />
      <glyph unicode="&#xce;" glyph-name="gid25" horiz-adv-x="543" d="M138,0V1760H406V0H138ZM-68,1900l189,337H423l188-337H358l-86,236l-86-236H-68Z" />
      <glyph unicode="&#xcf;" glyph-name="gid26" horiz-adv-x="543" d="M138,0V1760H406V0H138ZM373,1900v226H655V1900H373Zm-484,0v226H171V1900H-111Z" />
      <glyph unicode="&#xd0;" glyph-name="gid14" horiz-adv-x="1008" d="M132,0V1760H527q134,0 215-53.5T859.5,1552T896,1308l1-794q0-173-37.5-287.5T739,56T518,0H132ZM400,208h88q47,0 78.5,19t47,67.5T629,432l-1,869q0,135-33,194t-116,59H400V208ZM8,826V935H558V826H8Z" />
      <glyph unicode="&#xd1;" glyph-name="gid34" horiz-adv-x="1069" d="M132,0V1760H342L715,704l-19,480v576H937V0H747L364,1093l15-462V0H132ZM688,1900q-44,0-94,20.5t-99,41T404,1982q-16,0-23-2q-16-4-26.5-18.5T330,1921l-130,52q20,68 48,107.5t64,57t80,17.5q41,0 95.5-18.5t104.5-37t75-18.5h4q14,2 27,14t29,57l142-28l-9-48q-22-103-63.5-139.5T688,1900Z" />
      <glyph unicode="&#xd2;" glyph-name="gid39" horiz-adv-x="999" d="M502-20Q365-20 278.5,38T151,210T110,492v805q0,152 40,260t127,166t228,58q106,0 179-33t118-95.5t65.5-152T888,1297V492q0-168-39.5-282T724,38T502-20Zm0,232q50,0 75,30t33.5,91.5T619,489v820q0,115-21.5,177.5T505,1549q-73,0-99-60.5T380,1310V489q0-96 8.5-157.5t35-90.5T502,212Zm-9,1688L290,2313H555l94-413H493Z" />
      <glyph unicode="&#xd3;" glyph-name="gid36" horiz-adv-x="999" d="M502-20Q365-20 278.5,38T151,210T110,492v805q0,152 40,260t127,166t228,58q106,0 179-33t118-95.5t65.5-152T888,1297V492q0-168-39.5-282T724,38T502-20Zm0,232q50,0 75,30t33.5,91.5T619,489v820q0,115-21.5,177.5T505,1549q-73,0-99-60.5T380,1310V489q0-96 8.5-157.5t35-90.5T502,212ZM351,1900l94,413H710L507,1900H351Z" />
      <glyph unicode="&#xd4;" glyph-name="gid37" horiz-adv-x="999" d="M502-20Q365-20 278.5,38T151,210T110,492v805q0,152 40,260t127,166t228,58q106,0 179-33t118-95.5t65.5-152T888,1297V492q0-168-39.5-282T724,38T502-20Zm0,232q50,0 75,30t33.5,91.5T619,489v820q0,115-21.5,177.5T505,1549q-73,0-99-60.5T380,1310V489q0-96 8.5-157.5t35-90.5T502,212ZM160,1900l189,337H651l188-337H586l-86,236l-86-236H160Z" />
      <glyph unicode="&#xd5;" glyph-name="gid41" horiz-adv-x="999" d="M502-20Q365-20 278.5,38T151,210T110,492v805q0,152 40,260t127,166t228,58q106,0 179-33t118-95.5t65.5-152T888,1297V492q0-168-39.5-282T724,38T502-20Zm0,232q50,0 75,30t33.5,91.5T619,489v820q0,115-21.5,177.5T505,1549q-73,0-99-60.5T380,1310V489q0-96 8.5-157.5t35-90.5T502,212ZM653,1900q-44,0-94,20.5t-99,41T369,1982q-16,0-23-2q-16-4-26.5-18.5T295,1921l-130,52q20,68 48,107.5t64,57t80,17.5q41,0 95.5-18.5t104.5-37t75-18.5h4q14,2 27,14t29,57l142-28l-9-48q-22-103-63.5-139.5T653,1900Z" />
      <glyph unicode="&#xd6;" glyph-name="gid38" horiz-adv-x="999" d="M502-20Q365-20 278.5,38T151,210T110,492v805q0,152 40,260t127,166t228,58q106,0 179-33t118-95.5t65.5-152T888,1297V492q0-168-39.5-282T724,38T502-20Zm0,232q50,0 75,30t33.5,91.5T619,489v820q0,115-21.5,177.5T505,1549q-73,0-99-60.5T380,1310V489q0-96 8.5-157.5t35-90.5T502,212Zm99,1688v226H883V1900H601Zm-484,0v226H399V1900H117Z" />
      <glyph unicode="&#xd7;" glyph-name="gid204" horiz-adv-x="710" d="M208,314L44,478L191,625L44,772L208,936L355,789L502,936L666,772L519,625L666,478L502,314L355,461L208,314Z" />
      <glyph unicode="&#xd8;" glyph-name="gid40" horiz-adv-x="900" d="M193-206L94-166L822,1906l107-36L193-206ZM502-20Q365-20 278.5,38T151,210T110,492v805q0,152 40,260t127,166t228,58q106,0 179-33t118-95.5t65.5-152T888,1297V492q0-168-39.5-282T724,38T502-20Zm0,232q50,0 75,30t33.5,91.5T619,489v820q0,115-21.5,177.5T505,1549q-73,0-99-60.5T380,1310V489q0-96 8.5-157.5t35-90.5T502,212Z" />
      <glyph unicode="&#xd9;" glyph-name="gid53" horiz-adv-x="1013" d="M508-20Q371-20 285,31.5t-126,156T119,452V1760H387V457q0-74 6.5-130T425,240t82-31t82.5,30.5T621,326t6,131V1760H895V452q0-160-39.5-264.5t-125-156T508-20Zm-8,1920L297,2313H562l94-413H500Z" />
      <glyph unicode="&#xda;" glyph-name="gid50" horiz-adv-x="1013" d="M508-20Q371-20 285,31.5t-126,156T119,452V1760H387V457q0-74 6.5-130T425,240t82-31t82.5,30.5T621,326t6,131V1760H895V452q0-160-39.5-264.5t-125-156T508-20ZM358,1900l94,413H717L514,1900H358Z" />
      <glyph unicode="&#xdb;" glyph-name="gid51" horiz-adv-x="1013" d="M508-20Q371-20 285,31.5t-126,156T119,452V1760H387V457q0-74 6.5-130T425,240t82-31t82.5,30.5T621,326t6,131V1760H895V452q0-160-39.5-264.5t-125-156T508-20ZM167,1900l189,337H658l188-337H593l-86,236l-86-236H167Z" />
      <glyph unicode="&#xdc;" glyph-name="gid52" horiz-adv-x="1013" d="M508-20Q371-20 285,31.5t-126,156T119,452V1760H387V457q0-74 6.5-130T425,240t82-31t82.5,30.5T621,326t6,131V1760H895V452q0-160-39.5-264.5t-125-156T508-20ZM608,1900v226H890V1900H608Zm-484,0v226H406V1900H124Z" />
      <glyph unicode="&#xdd;" glyph-name="gid58" horiz-adv-x="878" d="M312,0V703L17,1760H273l174-658h4l155,658H861L580,703V0H312ZM290,1900l94,413H649L446,1900H290Z" />
      <glyph unicode="&#xde;" glyph-name="gid44" horiz-adv-x="982" d="M146,0V1760H414V1497H550q106,0 175-34t109-100.5T891.5,1200T910,981V953q0-170-30-292.5T773.5,473T559,408H414V0H146ZM414,630h92q59,0 88,33t38.5,104.5T642,955v24q0,149-23.5,230T508,1290H414V630Z" />
      <glyph unicode="&#xdf;" glyph-name="gid108" horiz-adv-x="1032" d="M135,0V1417q0,91 19,159.5t62.5,114t116,68T511,1781q132,0 217-34.5t126.5-114T896,1417V1220q0-77-15-131.5T831,999t-94-54q85-20 132.5-69t67-129T956,553V476q0-112-15-200.5t-54-150T777,32T593,0H489V212q80,0 125,14.5T677,281t18,114V656q0,100-42,138T498,832v200q80,0 108.5,34T635,1170v268q0,69-26.5,96.5T517,1562q-58,0-87.5-27.5T400,1438V0H135Z" />
      <glyph unicode="&#xe0;" glyph-name="gid64" horiz-adv-x="970" d="M376-15Q222-15 162.5,97T101,394v96q0,120 34.5,195T234,807t153,82t198,75v131q0,76-6,121.5T552,1283t-65,21q-43,0-65.5-21.5t-30.5-66T383,1103v-67H121v45q0,103 17.5,184T198,1402.5t114.5,86T495,1518q97,0 166-27.5t112-82T836,1272t20-191V0H589V149q-12-43-41-80.5T475.5,8T376-15Zm92,204q50,0 80,36t37,73V814q-60-27-101-50.5T418,712t-36-66t-11-93V385q0-103 21.5-149.5T468,189Zm10,1451L275,2053H540l94-413H478Z" />
      <glyph unicode="&#xe1;" glyph-name="gid61" horiz-adv-x="970" d="M376-15Q222-15 162.5,97T101,394v96q0,120 34.5,195T234,807t153,82t198,75v131q0,76-6,121.5T552,1283t-65,21q-43,0-65.5-21.5t-30.5-66T383,1103v-67H121v45q0,103 17.5,184T198,1402.5t114.5,86T495,1518q97,0 166-27.5t112-82T836,1272t20-191V0H589V149q-12-43-41-80.5T475.5,8T376-15Zm92,204q50,0 80,36t37,73V814q-60-27-101-50.5T418,712t-36-66t-11-93V385q0-103 21.5-149.5T468,189ZM336,1640l94,413H695L492,1640H336Z" />
      <glyph unicode="&#xe2;" glyph-name="gid62" horiz-adv-x="970" d="M376-15Q222-15 162.5,97T101,394v96q0,120 34.5,195T234,807t153,82t198,75v131q0,76-6,121.5T552,1283t-65,21q-43,0-65.5-21.5t-30.5-66T383,1103v-67H121v45q0,103 17.5,184T198,1402.5t114.5,86T495,1518q97,0 166-27.5t112-82T836,1272t20-191V0H589V149q-12-43-41-80.5T475.5,8T376-15Zm92,204q50,0 80,36t37,73V814q-60-27-101-50.5T418,712t-36-66t-11-93V385q0-103 21.5-149.5T468,189ZM145,1640l189,337H636l188-337H571l-86,236l-86-236H145Z" />
      <glyph unicode="&#xe3;" glyph-name="gid66" horiz-adv-x="970" d="M376-15Q222-15 162.5,97T101,394v96q0,120 34.5,195T234,807t153,82t198,75v131q0,76-6,121.5T552,1283t-65,21q-43,0-65.5-21.5t-30.5-66T383,1103v-67H121v45q0,103 17.5,184T198,1402.5t114.5,86T495,1518q97,0 166-27.5t112-82T836,1272t20-191V0H589V149q-12-43-41-80.5T475.5,8T376-15Zm92,204q50,0 80,36t37,73V814q-60-27-101-50.5T418,712t-36-66t-11-93V385q0-103 21.5-149.5T468,189ZM638,1640q-44,0-94,20.5t-99,41T354,1722q-16,0-23-2q-16-4-26.5-18.5T280,1661l-130,52q20,68 48,107.5t64,57t80,17.5q41,0 95.5-18.5t104.5-37t75-18.5h4q14,2 27,14t29,57l142-28l-9-48q-22-103-63.5-139.5T638,1640Z" />
      <glyph unicode="&#xe4;" glyph-name="gid63" horiz-adv-x="970" d="M376-15Q222-15 162.5,97T101,394v96q0,120 34.5,195T234,807t153,82t198,75v131q0,76-6,121.5T552,1283t-65,21q-43,0-65.5-21.5t-30.5-66T383,1103v-67H121v45q0,103 17.5,184T198,1402.5t114.5,86T495,1518q97,0 166-27.5t112-82T836,1272t20-191V0H589V149q-12-43-41-80.5T475.5,8T376-15Zm92,204q50,0 80,36t37,73V814q-60-27-101-50.5T418,712t-36-66t-11-93V385q0-103 21.5-149.5T468,189ZM586,1640v226H868V1640H586Zm-484,0v226H384V1640H102Z" />
      <glyph unicode="&#xe5;" glyph-name="gid65" horiz-adv-x="970" d="M376-15Q222-15 162.5,97T101,394v96q0,120 34.5,195T234,807t153,82t198,75v131q0,76-6,121.5T552,1283t-65,21q-43,0-65.5-21.5t-30.5-66T383,1103v-67H121v45q0,103 17.5,184T198,1402.5t114.5,86T495,1518q97,0 166-27.5t112-82T836,1272t20-191V0H589V149q-12-43-41-80.5T475.5,8T376-15Zm92,204q50,0 80,36t37,73V814q-60-27-101-50.5T418,712t-36-66t-11-93V385q0-103 21.5-149.5T468,189Zm17,1451q-109,0-171,64t-62,160q0,95 62,159.5T485,2088q110,0 171.5-64.5T718,1864t-61.5-159.5T485,1640Zm1,94q60,0 89.5,41t29.5,90t-29.5,89.5T486,1995q-59,0-89-40.5T367,1865t30-90t89-41Z" />
      <glyph unicode="&#xe6;" glyph-name="gid67" horiz-adv-x="1443" d="M985-18Q885-18 817.5,22.5T718,128q-23-37-65-69.5t-97-53T438-15Q274-15 190.5,96.5T107,406V506q2,116 37,188t98.5,118t152,81T592,969v92q0,72-6.5,127T558,1273.5T492,1304q-41,0-63.5-20t-31-63T389,1109v-73H128v45q0,103 17.5,184t59,137.5t114,86T501,1518q85,0 140.5-27.5T730,1409q38,53 98.5,81T977,1518q105,0 175-32t110.5-93t58-146.5T1338,1053V726H860V472q0-92 9-153.5t33-92T971,196q51,0 73,37.5t27,99t4,131.5l-1,105h263V499q0-118-13-213.5t-49.5-163t-106-104T985-18ZM474,197q50,0 80,36t37,73V803q-61-27-102.5-50t-66-50t-35-65T377,544V393q0-103 21.5-149.5T474,197ZM860,906h214v173q0,75-7,126.5t-28,77.5t-64,26q-53,0-77.5-32t-31-88.5T860,1057V906Z" />
      <glyph unicode="&#xe7;" glyph-name="gid70" horiz-adv-x="938" d="M494-18Q379-18 304,17.5T186.5,120T127,283T110,500V986q0,166 31,285t114.5,183T497,1518q97,0 164-30t108-86.5T828.5,1265T847,1085V920H591v174q0,65-6,111.5t-27,71T491,1301q-45,0-70-25t-34.5-72.5T377,1090V414q0-68 8.5-116t32-73.5T487,199q45,0 67.5,26.5T584,300t7,113V591H847V439q0-103-18-187.5T770,107T661,14.5T494-18ZM466-638q-78,0-149,26v111q95,0 144.5,20t68,52.5T548-359q0,68-49,109T388-196L428,0h82l15-141q113-39 170.5-107T753-396q0-63-33.5-118T622-603.5T466-638Z" />
      <glyph unicode="&#xe8;" glyph-name="gid77" horiz-adv-x="945" d="M481-18Q368-18 295.5,18t-113,104T126,285.5T110,499v559q0,105 21.5,190t67,145T317,1485.5T493,1518q105,0 175-32t110.5-93t58-146.5T854,1053V732H377V437q0-109 17-175t93-66q51,0 72.5,31t26,85.5T590,437V569H852V489q0-121-14.5-215t-54-159T671,16T481-18ZM376,887H590v192q0,75-7,126.5T555,1283t-64,26q-53,0-77.5-31t-31-84.5T376,1072V887Zm90,753L263,2053H528l94-413H466Z" />
      <glyph unicode="&#xe9;" glyph-name="gid74" horiz-adv-x="945" d="M481-18Q368-18 295.5,18t-113,104T126,285.5T110,499v559q0,105 21.5,190t67,145T317,1485.5T493,1518q105,0 175-32t110.5-93t58-146.5T854,1053V732H377V437q0-109 17-175t93-66q51,0 72.5,31t26,85.5T590,437V569H852V489q0-121-14.5-215t-54-159T671,16T481-18ZM376,887H590v192q0,75-7,126.5T555,1283t-64,26q-53,0-77.5-31t-31-84.5T376,1072V887Zm-52,753l94,413H683L480,1640H324Z" />
      <glyph unicode="&#xea;" glyph-name="gid75" horiz-adv-x="945" d="M481-18Q368-18 295.5,18t-113,104T126,285.5T110,499v559q0,105 21.5,190t67,145T317,1485.5T493,1518q105,0 175-32t110.5-93t58-146.5T854,1053V732H377V437q0-109 17-175t93-66q51,0 72.5,31t26,85.5T590,437V569H852V489q0-121-14.5-215t-54-159T671,16T481-18ZM376,887H590v192q0,75-7,126.5T555,1283t-64,26q-53,0-77.5-31t-31-84.5T376,1072V887ZM133,1640l189,337H624l188-337H559l-86,236l-86-236H133Z" />
      <glyph unicode="&#xeb;" glyph-name="gid76" horiz-adv-x="945" d="M481-18Q368-18 295.5,18t-113,104T126,285.5T110,499v559q0,105 21.5,190t67,145T317,1485.5T493,1518q105,0 175-32t110.5-93t58-146.5T854,1053V732H377V437q0-109 17-175t93-66q51,0 72.5,31t26,85.5T590,437V569H852V489q0-121-14.5-215t-54-159T671,16T481-18ZM376,887H590v192q0,75-7,126.5T555,1283t-64,26q-53,0-77.5-31t-31-84.5T376,1072V887Zm198,753v226H856V1640H574Zm-484,0v226H372V1640H90Z" />
      <glyph unicode="&#xec;" glyph-name="gid86" horiz-adv-x="537" d="M136,0V1500H401V0H136ZM262,1640L59,2053H324l94-413H262Z" />
      <glyph unicode="&#xed;" glyph-name="gid83" horiz-adv-x="537" d="M136,0V1500H401V0H136ZM120,1640l94,413H479L276,1640H120Z" />
      <glyph unicode="&#xee;" glyph-name="gid84" horiz-adv-x="537" d="M136,0V1500H401V0H136ZM-71,1640l189,337H420l188-337H355l-86,236l-86-236H-71Z" />
      <glyph unicode="&#xef;" glyph-name="gid85" horiz-adv-x="537" d="M136,0V1500H401V0H136ZM370,1640v226H652V1640H370Zm-484,0v226H168V1640H-114Z" />
      <glyph unicode="&#xf0;" glyph-name="gid72" horiz-adv-x="1013" d="M491-21Q340-21 253.5,36T131,205.5T95,483V586q0,175 34.5,289.5t110.5,170T441,1098q58-1 97.5-15.5T605,1042q0,13-2.5,44t-6.5,72t-10.5,83.5t-15,79T551,1378L342,1262l-65,137l189,106q-42,48-94.5,78T269,1630l137,151q78-12 150.5-50T687,1625l199,110l66-137l-179-98q19-35 36-95t30.5-133.5T863,1121t15-145.5T883,857V527q0-176-30-298.5T738.5,42.5T491-21Zm-2,233q74,0 100,58t26,186V776q-6,41-41,69t-92,28q-46,0-72-26t-36.5-83T363,613V434q0-85 11.5-133.5t39-68.5T489,212Z" />
      <glyph unicode="&#xf1;" glyph-name="gid94" horiz-adv-x="1020" d="M131,0V1500H396V1328q20,77 84,133.5T637,1518q130,0 195-86.5T897,1181V0H632V1165q0,65-29.5,102T522,1304q-41,0-69.5-22.5t-42.5-62T396,1127V0H131ZM663,1640q-44,0-94,20.5t-99,41T379,1722q-16,0-23-2q-16-4-26.5-18.5T305,1661l-130,52q20,68 48,107.5t64,57t80,17.5q41,0 95.5-18.5t104.5-37t75-18.5h4q14,2 27,14t29,57l142-28l-9-48q-22-103-63.5-139.5T663,1640Z" />
      <glyph unicode="&#xf2;" glyph-name="gid99" horiz-adv-x="970" d="M486-18Q378-18 305,15.5t-115.5,97t-61,155T110,476v561q0,141 36.5,249.5t119.5,170T486,1518q104,0 175.5-35t115-99.5T840,1231t20-194V476q0-115-17.5-206t-60-155.5T668,16T486-18Zm0,214q45,0 68,27.5T585,300t8,113v671q0,68-9,117t-32,76t-66,27q-45,0-68.5-27t-32-76T377,1084V413q0-64 8.5-113t32-76.5T486,196Zm-8,1444L275,2053H540l94-413H478Z" />
      <glyph unicode="&#xf3;" glyph-name="gid96" horiz-adv-x="970" d="M486-18Q378-18 305,15.5t-115.5,97t-61,155T110,476v561q0,141 36.5,249.5t119.5,170T486,1518q104,0 175.5-35t115-99.5T840,1231t20-194V476q0-115-17.5-206t-60-155.5T668,16T486-18Zm0,214q45,0 68,27.5T585,300t8,113v671q0,68-9,117t-32,76t-66,27q-45,0-68.5-27t-32-76T377,1084V413q0-64 8.5-113t32-76.5T486,196ZM336,1640l94,413H695L492,1640H336Z" />
      <glyph unicode="&#xf4;" glyph-name="gid97" horiz-adv-x="970" d="M486-18Q378-18 305,15.5t-115.5,97t-61,155T110,476v561q0,141 36.5,249.5t119.5,170T486,1518q104,0 175.5-35t115-99.5T840,1231t20-194V476q0-115-17.5-206t-60-155.5T668,16T486-18Zm0,214q45,0 68,27.5T585,300t8,113v671q0,68-9,117t-32,76t-66,27q-45,0-68.5-27t-32-76T377,1084V413q0-64 8.5-113t32-76.5T486,196ZM145,1640l189,337H636l188-337H571l-86,236l-86-236H145Z" />
      <glyph unicode="&#xf5;" glyph-name="gid101" horiz-adv-x="970" d="M486-18Q378-18 305,15.5t-115.5,97t-61,155T110,476v561q0,141 36.5,249.5t119.5,170T486,1518q104,0 175.5-35t115-99.5T840,1231t20-194V476q0-115-17.5-206t-60-155.5T668,16T486-18Zm0,214q45,0 68,27.5T585,300t8,113v671q0,68-9,117t-32,76t-66,27q-45,0-68.5-27t-32-76T377,1084V413q0-64 8.5-113t32-76.5T486,196ZM638,1640q-44,0-94,20.5t-99,41T354,1722q-16,0-23-2q-16-4-26.5-18.5T280,1661l-130,52q20,68 48,107.5t64,57t80,17.5q41,0 95.5-18.5t104.5-37t75-18.5h4q14,2 27,14t29,57l142-28l-9-48q-22-103-63.5-139.5T638,1640Z" />
      <glyph unicode="&#xf6;" glyph-name="gid98" horiz-adv-x="970" d="M486-18Q378-18 305,15.5t-115.5,97t-61,155T110,476v561q0,141 36.5,249.5t119.5,170T486,1518q104,0 175.5-35t115-99.5T840,1231t20-194V476q0-115-17.5-206t-60-155.5T668,16T486-18Zm0,214q45,0 68,27.5T585,300t8,113v671q0,68-9,117t-32,76t-66,27q-45,0-68.5-27t-32-76T377,1084V413q0-64 8.5-113t32-76.5T486,196ZM586,1640v226H868V1640H586Zm-484,0v226H384V1640H102Z" />
      <glyph unicode="&#xf7;" glyph-name="gid205" horiz-adv-x="804" d="M94,638V870H710V638H94ZM253,237V535H551V237H253Zm0,739v298H551V976H253Z" />
      <glyph unicode="&#xf8;" glyph-name="gid100" horiz-adv-x="879" d="M284-173L184-145L693,1672l101-28L284-173ZM486-18Q378-18 305,15.5t-115.5,97t-61,155T110,476v561q0,141 36.5,249.5t119.5,170T486,1518q104,0 175.5-35t115-99.5T840,1231t20-194V476q0-115-17.5-206t-60-155.5T668,16T486-18Zm0,214q45,0 68,27.5T585,300t8,113v671q0,68-9,117t-32,76t-66,27q-45,0-68.5-27t-32-76T377,1084V413q0-64 8.5-113t32-76.5T486,196Z" />
      <glyph unicode="&#xf9;" glyph-name="gid114" horiz-adv-x="1010" d="M389-19q-89,0-148.5,40t-89,119.5T122,340V1500H388V381q0-86 21-134t88-48q70,0 95.5,54.5T618,379l1,1121H883V0H618V156Q590,80 537,30.5T389-19ZM498,1640L295,2053H560l94-413H498Z" />
      <glyph unicode="&#xfa;" glyph-name="gid111" horiz-adv-x="1010" d="M389-19q-89,0-148.5,40t-89,119.5T122,340V1500H388V381q0-86 21-134t88-48q70,0 95.5,54.5T618,379l1,1121H883V0H618V156Q590,80 537,30.5T389-19ZM356,1640l94,413H715L512,1640H356Z" />
      <glyph unicode="&#xfb;" glyph-name="gid112" horiz-adv-x="1010" d="M389-19q-89,0-148.5,40t-89,119.5T122,340V1500H388V381q0-86 21-134t88-48q70,0 95.5,54.5T618,379l1,1121H883V0H618V156Q590,80 537,30.5T389-19ZM165,1640l189,337H656l188-337H591l-86,236l-86-236H165Z" />
      <glyph unicode="&#xfc;" glyph-name="gid113" horiz-adv-x="1010" d="M389-19q-89,0-148.5,40t-89,119.5T122,340V1500H388V381q0-86 21-134t88-48q70,0 95.5,54.5T618,379l1,1121H883V0H618V156Q590,80 537,30.5T389-19ZM606,1640v226H888V1640H606Zm-484,0v226H404V1640H122Z" />
      <glyph unicode="&#xfd;" glyph-name="gid119" horiz-adv-x="859" d="M89-265V-82h87q44,0 74,7.5T284-42q7,13 5,46.5T283,68L43,1500H295l96-767l40-404h22l36,404l88,767H828L568-64q-11-71-30.5-115.5t-58.5-65T371-265H89ZM281,1640l94,413H640L437,1640H281Z" />
      <glyph unicode="&#xfe;" glyph-name="gid104" horiz-adv-x="1000" d="M133-285V1775H399V1365q29,74 89.5,112T612,1515q115,0 173.5-61.5t79-167.5T885,1048V501q0-144-19.5-262T782,51.5T586-18q-61,0-109.5,33T399,91V-285H133ZM515,198q67,0 86,65.5T620,451v618q0,65-6,117.5T586,1270t-69,31q-37,0-63.5-19T413,1213t-14-143V440q0-115 21.5-178.5T515,198Z" />
      <glyph unicode="&#xff;" glyph-name="gid120" horiz-adv-x="859" d="M89-265V-82h87q44,0 74,7.5T284-42q7,13 5,46.5T283,68L43,1500H295l96-767l40-404h22l36,404l88,767H828L568-64q-11-71-30.5-115.5t-58.5-65T371-265H89ZM531,1640v226H813V1640H531Zm-484,0v226H329V1640H47Z" />
      <glyph unicode="&#x2013;" glyph-name="gid165" horiz-adv-x="756" d="M120,509V741H636V509H120Z" />
      <glyph unicode="&#x2014;" glyph-name="gid166" horiz-adv-x="1153" d="M60,509V741H1092V509H60Z" />
      <glyph unicode="&#x2018;" glyph-name="gid178" horiz-adv-x="586" d="M119,1065v271l136,439H408l-93-430H468V1065H119Z" />
      <glyph unicode="&#x2019;" glyph-name="gid179" horiz-adv-x="586" d="M188,1065l94,429H129v281H478V1503L342,1065H188Z" />
      <glyph unicode="&#x201a;" glyph-name="gid174" horiz-adv-x="484" d="M138-324L216,0H80V258H411V9L302-324H138Z" />
      <glyph unicode="&#x201c;" glyph-name="gid176" horiz-adv-x="1030" d="M606,1141v253l110,381H880l-78-372H937V1141H606Zm-466,0v253l110,381H414l-78-372H471V1141H140Z" />
      <glyph unicode="&#x201d;" glyph-name="gid177" horiz-adv-x="1077" d="M678,1141l78,372H621v262H952V1522L842,1141H678Zm-466,0l78,372H155v262H486V1522L376,1141H212Z" />
      <glyph unicode="&#x201e;" glyph-name="gid175" horiz-adv-x="1016" d="M674-373L752,0H617V261H947V8L838-373H674Zm-466,0L286,0H151V261H481V8L372-373H208Z" />
      <glyph unicode="&#x2022;" glyph-name="gid158" horiz-adv-x="861" d="M430,451q-128,0-196.5,77.5T165,741t68.5,212.5T430,1031t197-77.5T696,741T627,528.5T430,451Z" />
      <glyph unicode="&#x2039;" glyph-name="gid182" horiz-adv-x="606" d="M548,327L57,612V887l491,271V890L236,749L548,599V327Z" />
      <glyph unicode="&#x203a;" glyph-name="gid183" horiz-adv-x="727" d="M139,327V599L451,749L139,890v268L630,887V612L139,327Z" />
    </font>
</defs>
</svg>
