<?xml version="1.0" standalone="no"?>
<!DOCTYPE svg PUBLIC "-//W3C//DTD SVG 1.1//EN" "http://www.w3.org/Graphics/SVG/1.1/DTD/svg11.dtd">
<svg xmlns="http://www.w3.org/2000/svg">
  <defs>
    <font id="Antonio" horiz-adv-x="823">
      <font-face font-family="Antonio Thin" units-per-em="2048" panose-1="0 0 0 0 0 0 0 0 0 0" ascent="2365" descent="-285" alphabetic="0" />
      <glyph unicode=" " glyph-name="gid146" horiz-adv-x="460" />
      <glyph unicode="!" glyph-name="gid153" horiz-adv-x="501" d="M220,368L157,1760H345L280,368H220ZM156,0V202H342V0H156Z" />
      <glyph unicode="&quot;" glyph-name="gid184" horiz-adv-x="771" d="M487,1125v635H644l-93-635H487Zm-291,0v635H352l-92-635H196Z" />
      <glyph unicode="#" glyph-name="gid160" horiz-adv-x="829" d="M22,0L154,670H-12v97H174l54,274H31v97H247l123,622H482L357,1138H573l125,622H801L678,1138H841v-97H658L604,767H798V670H585L452,0H350L480,670H264L133,0H22ZM282,765H502l53,270H336L282,765Z" />
      <glyph unicode="$" glyph-name="gid199" horiz-adv-x="830" d="M396-221V67H503V-221H396ZM354,1490v293H461V1490H354ZM454,28Q297,28 223.5,129.5T150,455V584H299V481q0-152 35.5-234.5T441,164q73,0 104.5,47T577,382q0,56-7.5,109t-37,108.5T436,718L325,823q-103,97-143.5,197.5T141,1234q0,168 78,250t204,82q84,0 146.5-42.5t97-144.5T701,1099v-94H561v121q0,158-32.5,230.5T426,1429q-76,0-105.5-64.5T291,1198q0-46 10-88.5t40.5-89.5T434,912L539,809Q645,706 688,599.5T731,373q0-153-66.5-249T454,28Z" />
      <glyph unicode="%" glyph-name="gid214" horiz-adv-x="2078" d="M607,0l730,1760h140L755,0H607ZM429,581q-111,0-170.5,37T177,748.5T155,1012v352q0,164 22.5,255T259,1746.5T429,1783q112,0 171-36.5T681.5,1619T704,1364V1012q0-170-22-263.5T600.5,618T429,581Zm0,137q80,0 108.5,45T566,936v500q0,124-28.5,167T429,1646q-79,0-108-43t-29-167V936q0-128 29-173t108-45ZM1649-20q-112,0-171.5,37T1396,147.5T1374,411V763q0,164 22.5,254.5t82,127T1649,1181t170.5-36.5t81.5-127T1923,763V411q0-170-22-263.5T1820,17T1649-20Zm0,137q80,0 108.5,45T1786,335V835q0,124-29,167t-108,43t-108-43t-29-167V335q0-128 29-173t108-45Z" />
      <glyph unicode="&amp;" glyph-name="gid187" horiz-adv-x="830" d="M338-20Q226-20 149,60T72,333q0,140 32.5,245.5T191,775T311,959q-62,160-103.5,287T166,1443q0,170 67,255t191,85q100,0 151-41.5T644,1622t18-188q0-101-30.5-187.5t-79.5-165T448,925L620,516q29,69 64,140t87,141l61-107q-55-79-88.5-161T682,368L837,0H710L607,253q-18-71-49.5-133.5T473,18.5T338-20Zm16,125q51,0 84,35t59,96.5T552,376L365,826q-49-63-86-147.5T221,504T200,334q0-97 36-163t118-66Zm45,952q59,83 99.5,179T539,1456q0,104-19.5,157.5T425,1667q-52,0-79-23.5T308.5,1584t-12-73.5T295,1445q0-60 30.5-162T399,1057Z" />
      <glyph unicode="&apos;" glyph-name="gid185" horiz-adv-x="404" d="M184,1125l-60,635H282l-65-635H184Z" />
      <glyph unicode="(" glyph-name="gid168" horiz-adv-x="546" d="M448-117q-89,0-145.5,14T215-47T172,77T160,295V1370q0,136 12,218.5T215,1713t87.5,56T448,1783V1669q-45,0-72.5-4.5t-42-29.5T314,1549t-5-175V291q0-114 5-175t19.5-86t42-29.5T448-4V-117Z" />
      <glyph unicode=")" glyph-name="gid169" horiz-adv-x="546" d="M98-119V-6q45,0 72.5,4.5t42,29.5T232,114t5,175V1374q0,114-5,175t-19.5,86t-42,29.5T98,1669v114q89,0 145.5-14t87.5-56t43-124.5T386,1370V293q0-136-12-218T331-49t-87.5-56T98-119Z" />
      <glyph unicode="*" glyph-name="gid159" horiz-adv-x="960" d="M414,1086l24,276L216,1190l-67,118l242,130L141,1560l68,116l229-163l-24,270H547l-20-269l224,172l68-116L569,1438l250-140l-68-117L527,1358l20-272H414Z" />
      <glyph unicode="+" glyph-name="gid202" horiz-adv-x="766" d="M322,576V842H92V948H322v260H440V948H674V842H440V576H322Z" />
      <glyph unicode="," glyph-name="gid149" horiz-adv-x="437" d="M162-350L258,0H143V173H343V9L239-350H162Z" />
      <glyph unicode="-" glyph-name="gid163" horiz-adv-x="696" d="M109,842V958H587V842H109Z" />
      <glyph unicode="." glyph-name="gid148" horiz-adv-x="532" d="M174,0V164H328V0H174Z" />
      <glyph unicode="/" glyph-name="gid161" horiz-adv-x="743" d="M88,0L538,1783H673L222,0H88Z" />
      <glyph unicode="0" glyph-name="gid129" horiz-adv-x="830" d="M417-21Q308-21 247,30.5T161,192T136,475v841q0,163 25,266t86,152t170,49q111,0 171.5-49T672,1582t23-266V475q0-130-12.5-224t-43-154t-85-89T417-21Zm-3,123q45,0 71.5,21.5t39.5,66t17,114T546,470v857q0,116-8,188.5t-36,107T414,1657q-56,0-84-34.5t-37-107T284,1328V470q0-97 4.5-166.5t18-114t39.5-66T414,102Z" />
      <glyph unicode="1" glyph-name="gid130" horiz-adv-x="830" d="M409,0V1534q-24-28-71-52.5t-98.5-39T151,1428v93q53,8 116.5,39.5T386,1643t83,117h89V0H409Z" />
      <glyph unicode="2" glyph-name="gid131" horiz-adv-x="830" d="M179,0V121q23,51 46,101.5T271,324t47,101L456,729q43,93 67.5,164.5T560,1028t15.5,129t3.5,148q0,148-11.5,223.5t-39.5,102T450,1656q-44-1-74-33.5T331.5,1517T317,1319V1065H176v258q0,167 30.5,268.5T301,1739t166,44q89-1 144-51t81-153.5T718,1310q0-134-16-239T653.5,871T572,669L447,395q-21-45-42-91t-42-91.5T321,121H694V0H179Z" />
      <glyph unicode="3" glyph-name="gid132" horiz-adv-x="830" d="M406-20Q238-20 169,102T100,474v43H250V474q0-145 12.5-225.5T310,136t102-32q66,0 101.5,34.5t49,115.5T576,472q0,150-22.5,233T484,821T362,854H323V982h37q74,0 121,21t69.5,93T573,1322q0,144-23,215t-61.5,94.5T404,1655q-44,0-77.5-26T274,1530.5T255,1318v-31H106v34q0,226 66.5,342.5T407,1780q169,0 242.5-116T723,1321q0-152-40-261.5T548,914q63-28 102-96.5T707.5,657T726,468q0-248-76.5-368T406-20Z" />
      <glyph unicode="4" glyph-name="gid133" horiz-adv-x="830" d="M485,0V352H95v97L476,1760H620V468H774V352H620V0H485ZM217,468H485V1468L217,468Z" />
      <glyph unicode="5" glyph-name="gid134" horiz-adv-x="830" d="M430-20Q320-20 262.5,24.5T184.5,140T164,291V459H307V263q0-84 27.5-122.5T426,102q57,0 88,37.5T545,274V869q0,114-25,168t-87,54q-50,0-85.5-49T312,888L188,910v850H648V1624H323V1126q14,45 57.5,71.5T476,1224q58,0 105.5-29.5t76-114.5T686,828V321q0-77-12.5-140T632,73T553.5,4T430-20Z" />
      <glyph unicode="6" glyph-name="gid135" horiz-adv-x="830" d="M442-20Q340-20 278.5,20t-92,112T146,299.5T136,506v758q0,178 23,293t88.5,170.5T440,1783q119,0 176-55t75-165.5T711,1284v-32H559v31q0,146-7.5,226.5t-34,113T433,1655q-66,0-97.5-33.5t-41.5-120T284,1255V1013q32,44 73,65.5t84,23.5q118,6 184-47t93-174t27-322V442q0-148-25.5-251.5t-91-157T442-20Zm0,127q61,0 94,27t46,100.5T595,446V547q0,162-11,256T542.5,937.5T453,978q-47,0-81.5-12t-56-24.5T284,926V504q0-139 8.5-226.5t41.5-129T442,107Z" />
      <glyph unicode="7" glyph-name="gid136" horiz-adv-x="830" d="M236,0q19,238 51,451.5t70.5,394T434,1165q66,230 115,354t49,124H95v117H728V1653q-1,7-44.5-122.5T582,1175q-38-150-76.5-337t-69-399T391,0H236Z" />
      <glyph unicode="8" glyph-name="gid137" horiz-adv-x="830" d="M421-20Q265-20 191.5,80.5T111,403v31q0,136 16,232.5t50,160T265,927q-72,51-104.5,151T128,1347q0,227 70.5,331.5T424,1783q154,0 223.5-104.5T717,1347q0-166-34.5-264.5T571,931q53-38 85-102.5T703,667t15-233V413q0-227-72.5-330T421-20Zm2,123q52,0 84.5,35T555,247.5T570,439v43q0,203-36.5,295T423,869q-82,0-122-95T261,470V428q0-171 38.5-248T423,103Zm-2,879q52,0 84,38.5T552.5,1141T568,1353q0,105-15.5,171.5T505,1622t-84,31q-50,0-82-31.5t-47-99T277,1348q0-128 15-209t47-119t82-38Z" />
      <glyph unicode="9" glyph-name="gid138" horiz-adv-x="830" d="M418-20Q309-20 251,34T171.5,197.5T150,473v35H292V483q1-163 10.5-244.5t39-108.5T431,103q64,0 86.5,43T542,282t2,241V712q-26-25-66-37.5T394,662q-121,0-182.5,64t-82,190T109,1226v26q0,111 7.5,207.5t35.5,169T239.5,1742T402,1783q102,0 161-41t87-113.5T686,1460t8-206V542q0-178-15.5-303.5t-74-192T418-20ZM408,776q38,0 64.5,5t44,11.5T544,803v452q0,197-22.5,297.5T403,1653q-67,0-97.5-44.5T267,1476t-8-219v-49q0-161 9-256t40.5-135.5T408,776Z" />
      <glyph unicode=":" glyph-name="gid150" horiz-adv-x="555" d="M179,1048v231H362V1048H179Zm0-736V543H362V312H179Z" />
      <glyph unicode=";" glyph-name="gid151" horiz-adv-x="561" d="M200,0l96,350H181V523H381V359L277,0H200ZM179,1048v231H362V1048H179Z" />
      <glyph unicode="&lt;" glyph-name="gid208" horiz-adv-x="730" d="M642,288L63,688V823l579,396V1051L174,758L642,448V288Z" />
      <glyph unicode="=" glyph-name="gid206" horiz-adv-x="722" d="M94,601V729H628V601H94Zm0,295v129H628V896H94Z" />
      <glyph unicode="&gt;" glyph-name="gid207" horiz-adv-x="730" d="M84,288V456L552,749L84,1059v160L663,818V684L84,288Z" />
      <glyph unicode="?" glyph-name="gid155" horiz-adv-x="708" d="M228,494V810q93,34 146.5,78t78,107T484,1149t7,220q0,157-17.5,224.5T396,1661q-65,0-85.5-60T290,1375V1160H158v205q0,54-0.5,125.5t16,138T240,1739t152,44q90,0 138-34t67.5-97T620,1503.5t3-189.5q0-173-24-287.5t-82.5-181T353,750V494H228ZM227,0V299H353V0H227Z" />
      <glyph unicode="@" glyph-name="gid186" horiz-adv-x="1340" d="M1161,121Q924,45 723.5,54T374,150.5t-231.5,249T60,790q0,183 34,334t112,261.5T415,1556t324,60q208,0 326-92.5t166.5-261T1280,867q0-130-22.5-240.5t-73-177.5T1051,382q-64,0-108.5,44.5T886,548q-23-82-91-128.5T647,374q-70,1-137,44.5t-110,137T357,801q0,127 29,222t83.5,157t131,91.5t171,26T975,1257V641q0-84 16.5-128.5T1052,468q38,0 64.5,42T1157,640t14,224q0,114-11,229t-52.5,210.5T977,1456.5T732,1514q-205,0-324-92.5T238.5,1165T188,787q0-228 79.5-370t215-207T789,150t354,71l18-100ZM649,467q44-2 87.5,20.5t75.5,60T856,628v560q-60,11-126,9t-123.5-36T513,1043.5T477,806q0-186 52.5-261T649,467Z" />
      <glyph unicode="A" glyph-name="gid1" horiz-adv-x="818" d="M35,0L318,1760H470L783,0H639L581,362H229L176,0H35ZM248,473H561L399,1476h-2L248,473Z" />
      <glyph unicode="B" glyph-name="gid10" horiz-adv-x="868" d="M166,0V1760H423q137,0 207-40t95-126.5T751,1366v-23q0-155-19.5-251.5T638,947q57-27 86.5-92t40-152.5T775,518V487q-2-167-28-275T655.5,52T468,0H166ZM315,128H473q62,0 95,33.5t45.5,119T626,520v16q-1,187-29.5,267.5T476,884H315V128Zm0,876H449q48,0 78,8.5t46,40.5t22.5,99t6.5,183v14q-1,124-18.5,183.5t-55.5,78T427,1629H315V1004Z" />
      <glyph unicode="C" glyph-name="gid11" horiz-adv-x="868" d="M448-20Q319-20 251.5,45.5T160,238T136,550v701q0,112 11,209t43,169.5t95.5,113T454,1783q107,0 167.5-41.5t88-115.5T744,1453t7-214V1087H600v170q0,196-25,298.5T453,1658q-100,0-134-101.5T285,1258V552q0-162 12-261t47-144t103-45q98,0 125.5,103.5T600,551V692H750V552q0-184-22-312T641,46T448-20Z" />
      <glyph unicode="D" glyph-name="gid13" horiz-adv-x="914" d="M166,0V1760H437q143,0 216-61.5T752,1524t26-266V504q0-183-33.5-293.5T635,50T431,0H166ZM314,128H437q65,0 107.5,30T608,272.5T629,519v755q0,195-45,278.5T446,1636H314V128Z" />
      <glyph unicode="E" glyph-name="gid15" horiz-adv-x="716" d="M166,0V1760H631V1644H315V956H612V835H315V118H628V0H166Z" />
      <glyph unicode="F" glyph-name="gid20" horiz-adv-x="695" d="M166,0V1760H628V1644H314V1005H611V886H314V0H166Z" />
      <glyph unicode="G" glyph-name="gid21" horiz-adv-x="890" d="M419-20Q272-20 204,108.5T136,532v713q0,113 11,210.5t43.5,171t96,115T456,1783q104,0 163-41t87-114.5T741.5,1457t7.5-210V1100H597v272q0,137-27,211.5T451,1658q-94,0-130-89.5T285,1261V543q0-238 30-339.5T445,102q95,0 125.5,101.5T601,541V763H450V890H749V0H651L635,102q-35-59-84.5-90.5T419-20Z" />
      <glyph unicode="H" glyph-name="gid22" horiz-adv-x="952" d="M166,0V1760H315V998H637v762H786V0H637V886H315V0H166Z" />
      <glyph unicode="I" glyph-name="gid23" horiz-adv-x="485" d="M168,0V1760H317V0H168Z" />
      <glyph unicode="J" glyph-name="gid28" horiz-adv-x="784" d="M361-20Q198-20 138,80.5T78,389V540H229V402q0-80 4.5-148.5t30.5-110T355,102q66,0 92,40.5t30,112T481,418V1760H630V420q0-226-61.5-333T361-20Z" />
      <glyph unicode="K" glyph-name="gid29" horiz-adv-x="854" d="M166,0V1760H315V893l355,867H814L452,891L837,0H683L317,860V0H166Z" />
      <glyph unicode="L" glyph-name="gid30" horiz-adv-x="643" d="M166,0V1760H315V118H627V0H166Z" />
      <glyph unicode="M" glyph-name="gid32" horiz-adv-x="1204" d="M166,0V1760H333L610,282L877,1760h167V0H909V754l23,709L681,38H539L279,1463l23-709V0H166Z" />
      <glyph unicode="N" glyph-name="gid33" horiz-adv-x="983" d="M166,0V1760H270L702,399l-15,606v755H817V0H701L296,1326l10-476V0H166Z" />
      <glyph unicode="O" glyph-name="gid35" horiz-adv-x="891" d="M447-20Q320-20 252.5,38t-92,177.5T136,519v749q0,152 21,268t88.5,181.5T454,1783q106,0 167-37.5T710.5,1639T747,1476t8-208V519q0-184-24-303.5T641,38T447-20Zm0,122q64,0 98.5,37T593,267t13,252v761q0,199-28.5,288.5T454,1658q-100,0-134.5-90T285,1281V519q0-161 13-252t48-128t101-37Z" />
      <glyph unicode="P" glyph-name="gid43" horiz-adv-x="847" d="M166,0V1760H472q106,0 168-37.5t91.5-106t38-162T778,1249v-18q0-184-25.5-304T659,748T463,689H315V0H166ZM315,815H473q62,0 95.5,38T615,981.5T628,1229v34q1,193-27,283t-121,90H315V815Z" />
      <glyph unicode="Q" glyph-name="gid45" horiz-adv-x="891" d="M622-389L409-17L518,27L720-337l-98-52ZM447-20Q320-20 252.5,38t-92,177.5T136,519v749q0,152 21,268t88.5,181.5T454,1783q106,0 167-37.5T710.5,1639T747,1476t8-208V519q0-184-24-303.5T641,38T447-20Zm0,122q64,0 98.5,37T593,267t13,252v761q0,199-28.5,288.5T454,1658q-100,0-134.5-90T285,1281V519q0-161 13-252t48-128t101-37Z" />
      <glyph unicode="R" glyph-name="gid46" horiz-adv-x="899" d="M166,0V1760H465q142,0 208-45t85.5-141T778,1326q0-169-35-272T616,925q51-8 83-44.5t48.5-119t23-227.5T777,164q0-24 0-42.5T778,88t3.5-28.5t6.5-28T799,0H651q-6,12-10,28.5T634.5,77T631,167t-1.5,153T629,557q0,121-5.5,184t-38,87.5T473,858L315,868V0H166ZM314,968H470q64,0 98.5,22.5t47.5,98T629,1322v13q0,130-11.5,194T574,1614.5T481,1636H314V968Z" />
      <glyph unicode="S" glyph-name="gid47" horiz-adv-x="794" d="M411-20Q306-20 244.5,22.5T153,139.5t-39,173T105,523V705H251V526q0-226 32.5-325T420,102q73,0 104.5,36T564,251t8,201q0,136-33.5,219.5T419,834L315,930q-48,44-100,102t-88,135.5T91,1346q0,127 22.5,225.5t89,155T402,1783q108,0 168-41.5T656.5,1626T689,1454t6-212v-99H562v110q0,162-14.5,249.5T499,1624t-95,34q-58,0-94.5-23t-53-84.5T240,1371q0-84 19-135.5t58-93.5t97-100l97-96q100-98 156.5-217T724,436q0-134-23-237T611,38T411-20Z" />
      <glyph unicode="T" glyph-name="gid48" horiz-adv-x="542" d="M207,0V1644H23v116H520V1644H355V0H207Z" />
      <glyph unicode="U" glyph-name="gid49" horiz-adv-x="915" d="M459-20Q335-20 267.5,31.5T174,187.5T148,452V1760H297V457q0-114 8-193.5T347.5,143T460,102q79,0 112,41t39.5,120T618,456V1760H767V452q0-160-25-264.5t-91.5-156T459-20Z" />
      <glyph unicode="V" glyph-name="gid54" horiz-adv-x="846" d="M360,0L47,1760H190l120-698L436,318h1l112,744l107,698H799L515,0H360Z" />
      <glyph unicode="W" glyph-name="gid55" horiz-adv-x="1312" d="M306,0L57,1760H203L387,322L607,1760H731L966,322l148,1438h141L1042,0H895L677,1448L443,0H306Z" />
      <glyph unicode="X" glyph-name="gid56" horiz-adv-x="710" d="M52,0L285,919L67,1760H204l169-659l162,659H659L437,853L656,0H523L347,680L176,0H52Z" />
      <glyph unicode="Y" glyph-name="gid57" horiz-adv-x="786" d="M334,0V772L16,1760H166L407,982h3l206,778H770L483,773V0H334Z" />
      <glyph unicode="Z" glyph-name="gid59" horiz-adv-x="638" d="M85,0V125L424,1644H94v116H576V1658L235,118H570V0H85Z" />
      <glyph unicode="[" glyph-name="gid172" horiz-adv-x="589" d="M166-80V1760H529V1646H315V35H529V-80H166Z" />
      <glyph unicode="\" glyph-name="gid162" horiz-adv-x="726" d="M505,0L94,1760H222L632,0H505Z" />
      <glyph unicode="]" glyph-name="gid173" horiz-adv-x="589" d="M60-80V35H274V1646H60v114H423V-80H60Z" />
      <glyph unicode="^" glyph-name="gid212" horiz-adv-x="972" d="M142,837l241,923H589L830,837H681L487,1648L293,837H142Z" />
      <glyph unicode="_" glyph-name="gid167" horiz-adv-x="748" d="M48-185V-64H699V-185H48Z" />
      <glyph unicode="`" glyph-name="gid228" horiz-adv-x="354" d="M235,1640L50,1972H210l94-332H235Z" />
      <glyph unicode="a" glyph-name="gid60" horiz-adv-x="844" d="M366-11Q247-11 187,89.5T127,377V569q0,80 33.5,136t93,98t139,78T563,956v102q0,115-6,187.5t-33,107T433,1387q-62,0-91.5-33.5t-38-108T295,1048v-37H145v40q0,90 6.5,174t33,150t85,104.5T433,1518q106,0 163.5-35t82-104t29-170T712,976V0H563V112q-6-18-29-47.5T469.5,12T366-11Zm27,124q59,0 106,33.5T563,211V837q-93-42-150.5-72t-87-61.5t-40-77T275,509V390q0-150 23-213.5T393,113Z" />
      <glyph unicode="b" glyph-name="gid68" horiz-adv-x="874" d="M510-11q-58,0-114,27t-87,98V0H160V1783H309V1372q11,62 63.5,103T480,1518q114,5 171-62.5t76-184T746,1012V490q0-143-16-256.5t-66-179T510-11ZM460,115q82,1 109.5,81.5T597,466v595q0,99-8,172t-35.5,113T467,1386q-48,0-83.5-20.5t-55-90T309,1059V460q0-179 28.5-262T460,115Z" />
      <glyph unicode="c" glyph-name="gid69" horiz-adv-x="803" d="M418-18Q316-18 257,21T170.5,131t-35,167.5T128,511v517q0,136 19.5,247t83,177T425,1518q102,0 158.5-36t81-102.5t30-158T700,1020V973H549v92q0,105-5,175t-30.5,105.5T426,1381q-67,0-98.5-40t-41-112.5T277,1057V455q0-116 8-190.5t38-110T419,119q63,0 90,39t33.5,112.5T549,449V562H700V517q0-117-5-215T665.5,132.5T583,21.5T418-18Z" />
      <glyph unicode="d" glyph-name="gid71" horiz-adv-x="855" d="M365-11Q264-11 213,53.5t-68,176T128,481v527q0,145 20.5,260.5T229,1451t176,67q53,0 96.5-37.5T564,1393v390H714V0H564V114q-31-72-87-98.5T365-11Zm44,125q47,0 82,19t54.5,87T565,434v603q0,182-27,265t-122,83q-82-1-110-82.5T278,1030V436q0-96 8-168.5t36-113T409,114Z" />
      <glyph unicode="e" glyph-name="gid73" horiz-adv-x="802" d="M421-18Q318-18 258.5,20.5T171,130T135.5,298T128,511v503q0,106 9,197.5T175.5,1372t89,107.5T425,1518t157-39.5t80.5-110t30-164T698,1002V752H277V450q0-172 22.5-254.5T419,113q62,0 89,39.5T542,266t7,178V556H694V507q0-114-4.5-209.5T661,131T580.5,21T421-18ZM277,877H549v191q0,103-4.5,174t-30,108T426,1387q-65,0-97-40.5t-42-114T277,1060V877Z" />
      <glyph unicode="f" glyph-name="gid78" horiz-adv-x="608" d="M219,0V1329H79v113H219v70q0,132 46.5,204.5T433,1789q54,0 93.5-8.5T568,1771V1650q-45,7-81,7q-83,0-100.5-34.5T369,1534v-92H568V1329H369V0H219Z" />
      <glyph unicode="g" glyph-name="gid79" horiz-adv-x="858" d="M423-232q-82-4-161,22T134-147L191-32q36-27 93.5-51.5T427-105q63,3 100.5,51.5T565,80V245q-32-73-80-95.5T381,127q-104,0-159,66.5t-74.5,181T128,632v381q0,143 27,258t88.5,182T406,1518q50-1 93.5-24.5T565,1412v88H714V97q0-40-10.5-94.5t-41-106t-88-87.5T423-232Zm13,487q45,0 73.5,27.5t42,104.5T565,614v436q0,173-24.5,255T424,1387q-66,0-97.5-42.5T286,1227t-9-175V611q0-185 32-270.5T436,255Z" />
      <glyph unicode="h" glyph-name="gid80" horiz-adv-x="921" d="M160,0V1783H309V1353q20,64 88,115t156,51q96,0 158-73.5T773,1211V0H623V1201q0,109-39,144.5T485,1381q-41,0-82-16.5T335.5,1307T309,1191V0H160Z" />
      <glyph unicode="i" glyph-name="gid81" horiz-adv-x="474" d="M162,0V1500H312V0H162Zm0,1638v145H311V1638H162Z" />
      <glyph unicode="j" glyph-name="gid87" horiz-adv-x="479" d="M176-223q-32,0-62.5,2.5T68-216v106q15-1 31-2.5t34-1.5q26,0 34.5,21T176-44V1500H325V-34q0-78-21.5-118.5T248-208t-72-15Zm0,1861v145H325V1638H176Z" />
      <glyph unicode="k" glyph-name="gid89" horiz-adv-x="835" d="M160,0V1783H309V760l331,740H789L448,756L807,0H651L309,742V0H160Z" />
      <glyph unicode="l" glyph-name="gid90" horiz-adv-x="465" d="M162,0V1783H312V0H162Z" />
      <glyph unicode="m" glyph-name="gid92" horiz-adv-x="1360" d="M160,0V1500H309V1351q19,64 81.5,116T538,1519q71,0 123.5-37.5T739,1367q36,67 104,109.5T993,1519q93,0 156-71.5t63-230.5V0H1062V1226q0,89-38,122t-99,33q-92,0-128.5-33.5T760,1217V0H611V1226q0,92-38.5,123.5T475,1381q-79,0-122.5-43T309,1209V0H160Z" />
      <glyph unicode="n" glyph-name="gid93" horiz-adv-x="920" d="M160,0V1500H309V1353q20,64 87,115t155,51q97,0 159-73.5T772,1211V0H623V1223q0,92-42.5,128T478,1387q-41,0-80-14t-64-50t-25-103V0H160Z" />
      <glyph unicode="o" glyph-name="gid95" horiz-adv-x="845" d="M426-18Q322-18 262,21T173,131.5t-37,169T128,515v503q0,141 18.5,254.5t82,179.5T426,1518q101,0 160-38t87-106t36-159t8-197V515q0-115-7-212T676,134T590,22T426-18Zm0,131q62,0 92.5,44t40,122.5T568,463v590q0,99-9.5,174T519,1344.5T426,1387q-67,0-99-42.5T286,1227t-9-174V463q0-105 9.5-183.5T328,157t98-44Z" />
      <glyph unicode="p" glyph-name="gid103" horiz-adv-x="876" d="M163-265V1500H312V1385q31,73 86,99.5T511,1511q103,0 153.5-65t67-177.5T748,1013V475q0-140-22.5-252t-82-176.5T472-18q-53,0-96.5,37.5T312,108V-265H163ZM464,115q82,1 108.5,82T599,468v593q0,99-7.5,172t-35,113T470,1386q-48,0-83.5-21t-55-90.5T312,1059V463q0-181 29-264.5T464,115Z" />
      <glyph unicode="q" glyph-name="gid105" horiz-adv-x="853" d="M565-265V106q-21-50-64.5-87T404-18Q291-18 231.5,47.5T150,226T128,479v534q0,143 16,255.5T210.5,1446T364,1511q59,0 114.5-28T565,1381v119H715V-265H565ZM406,114q48,0 83.5,20.5t55,90T564,441v596q0,179-28,263.5T412,1385q-82-1-109-82t-27-272V437q0-147 21-235t109-88Z" />
      <glyph unicode="r" glyph-name="gid106" horiz-adv-x="605" d="M160,0V1500H309V1333q26,87 90.5,136T564,1518q2,0 2.5-19t0.5-44.5t0-44.5t0-19q-49,0-93-12.5T390,1335t-81-89V0H160Z" />
      <glyph unicode="s" glyph-name="gid107" horiz-adv-x="744" d="M406-20Q249-20 175.5,81.5T102,407V536H251V433q0-152 35.5-234.5T393,116q73,0 104.5,47T529,334q0,56-7.5,109t-37,108.5T388,670L277,775Q174,872 133.5,972.5T93,1186q0,168 78,250t204,82q84,0 146.5-42.5t97-144.5T653,1051V957H513v121q0,158-32.5,230.5T378,1381q-76,0-105.5-64.5T243,1150q0-46 10-88.5T293.5,972T386,864L491,761Q597,658 640,551.5T683,325q0-153-66.5-249T406-20Z" />
      <glyph unicode="t" glyph-name="gid109" horiz-adv-x="585" d="M423-9Q327-9 279.5,12.5t-63,71T201,217V1384H51v116H201v260H351V1500H528V1384H351V209q0-40 9.5-59.5T407,124t120-6V-9H423Z" />
      <glyph unicode="u" glyph-name="gid110" horiz-adv-x="914" d="M385-20Q338-20 282.5,6.5t-95,93T148,285V1500H297V292q0-88 40-130.5T444,119q79,0 123.5,49.5T612,303l-2,1197H761V0H612V150Q594,86 533,33T385-20Z" />
      <glyph unicode="v" glyph-name="gid115" horiz-adv-x="718" d="M287,0L58,1500H194L312,690l51-449h6l45,450l110,809H660L436,0H287Z" />
      <glyph unicode="w" glyph-name="gid116" horiz-adv-x="1080" d="M236,0L60,1500H197l90-887l24-311h12l30,312l126,886h47h54h26L743,646l40-344h10l20,346l75,852h132L846,0H698L551,1283L378,0H236Z" />
      <glyph unicode="x" glyph-name="gid117" horiz-adv-x="668" d="M33,0L270,762L51,1500H181L341,973l149,527H632L400,779L636,0H497L326,574L165,0H33Z" />
      <glyph unicode="y" glyph-name="gid118" horiz-adv-x="745" d="M133-238v128h55q42,0 78,2.5T311-99q17,17 14,53T314,38L64,1500H214L333,707l48-408h13l43,408l107,793H693L454,3q-14-90-30-143t-53-75.5T257-238H133Z" />
      <glyph unicode="z" glyph-name="gid121" horiz-adv-x="621" d="M80,0V108L409,1371H105v129H568v-93L234,130H548V0H80Z" />
      <glyph unicode="{" glyph-name="gid170" horiz-adv-x="628" d="M450-81q-89,0-139,30.5T241.5,54T222,258V553q0,107-9,162.5t-38.5,75T84,810v81q61,0 90.5,19.5t38.5,75t9,162.5v295q0,131 19.5,205T311,1752.5T450,1783h60V1658q-62,0-92-17t-39-66t-9-145V1164q0-95-9.5-155.5t-35-97.5T251,850q49-23 74.5-60t35-97.5T370,537V271q0-96 9-145t39-66t92-17V-81H450Z" />
      <glyph unicode="|" glyph-name="gid194" horiz-adv-x="481" d="M166-134V1783H315V-134H166Z" />
      <glyph unicode="}" glyph-name="gid171" horiz-adv-x="628" d="M118-81V43q62,0 92,17t39,66t9,145V537q0,95 9.5,155.5t35,97.5T377,850q-49,24-74.5,61t-35,97.5T258,1164v266q0,96-9,145t-39,66t-92,17v125h60q90,0 139.5-30.5t69-104.5T406,1443V1148q0-107 9-162.5t38.5-75T544,891V810q-61,0-90.5-19.5t-38.5-75T406,553V258q0-130-19.5-204t-69-104.5T178-81H118Z" />
      <glyph unicode="~" glyph-name="gid210" horiz-adv-x="1049" d="M229,840L111,875q23,125 70.5,175.5T295,1101q39,0 103.5-17.5t134-40t126.5-40T740,986q35,0 51,31.5T815,1140l123-17q-6-74-20.5-125.5t-37-83.5t-52-46.5T762,853q-43,0-107.5,17t-133,39.5T397.5,950T317,970q-40,3-58-33t-30-97Z" />
      <glyph unicode="&#xa0;" glyph-name="gid147" horiz-adv-x="460" />
      <glyph unicode="&#xa1;" glyph-name="gid154" horiz-adv-x="501" d="M281,1132L344-260H156l65,1392h60Zm64,368V1298H159v202H345Z" />
      <glyph unicode="&#xa2;" glyph-name="gid197" horiz-adv-x="803" d="M380,1503v257h93V1503H380Zm0-1752V6h93V-249H380ZM418-18Q316-18 257,21T170.5,131t-35,167.5T128,511v517q0,136 19.5,247t83,177T425,1518q102,0 158.5-36t81-102.5t30-158T700,1020V973H549v92q0,105-5,175t-30.5,105.5T426,1381q-67,0-98.5-40t-41-112.5T277,1057V455q0-116 8-190.5t38-110T419,119q63,0 90,39t33.5,112.5T549,449V562H700V517q0-117-5-215T665.5,132.5T583,21.5T418-18Z" />
      <glyph unicode="&#xa3;" glyph-name="gid200" horiz-adv-x="830" d="M118,0V86q82,51 130,100t67,110t15,145.5T305,647q-7,43-14.5,85T275,817H88V920H256l-36,177q-15,74-26.5,155.5T182,1386q0,193 68.5,295T475,1783q77,0 140.5-29t102-113T756,1392V1246H627v158q0,111-17,165t-49,71.5T483,1658q-47,0-82.5-19.5t-55-73T326,1409q0-46 10.5-127.5T361,1120l37-200H700V817H418q8-43 15.5-86.5T448,643q29-166 26-269T435.5,210T329,110H778V0H118Z" />
      <glyph unicode="&#xa4;" glyph-name="gid198" horiz-adv-x="1159" d="M274,492L125,642l91,91q-53,98-53,214q0,117 52,214l-90,90l149,150l87-88q97,55 218,55t218-54l87,87l150-149l-90-90q54-97 54-215T944,731l90-90L884,492l-89,88q-92-52-216-52T363,581l-89-89ZM579,631q91,0 157.5,43t103,115.5T876,949q0,135-80,224t-217,89q-90,0-156.5-42.5t-103-114T283,947t36.5-159T422,673.5T579,631Z" />
      <glyph unicode="&#xa5;" glyph-name="gid201" horiz-adv-x="786" d="M57,462v82H392V741H57v83H733V741H445V544H733V462H57ZM334,0V772L16,1760H166L407,982h3l206,778H770L483,773V0H334Z" />
      <glyph unicode="&#xa6;" glyph-name="gid195" horiz-adv-x="480" d="M166-84V724H314V-84H166Zm0,1015v829H314V931H166Z" />
      <glyph unicode="&#xa7;" glyph-name="gid189" horiz-adv-x="764" d="M419-20Q262-18 195.5,77.5T129,397V526H266V409q0-152 30-224.5T397,104q74-7 123,35.5T564,310q-3,76-36.5,140T444,571T340,682l-86,86q-56,56-92,117.5T126,1015q0,47 12,106.5T208,1236q-42,69-60.5,125.5T127,1475q-4,111 30,178.5t98.5,98.5T407,1783q153,0 213-100.5T680,1360V1220H547v107q0,156-24.5,243.5T415,1658q-36,0-70.5-10.5t-57.5-44T263,1500q-1-71 14.5-117.5t53-95T433,1160l83-100q34-41 61.5-85.5T621,879t16-113q0-26-6.5-53.5T614,657t-23-57q47-60 73-136t32-139q15-153-55-249.5T419-20Zm93,701q4,12 5.5,34t1.5,44q0,65-24,115.5T416.5,988T270,1152q-20-29-25-54.5t-4-57.5q3-61 45.5-118.5T390.5,805T512,681Z" />
      <glyph unicode="&#xa8;" glyph-name="gid227" horiz-adv-x="712" d="M480,1640v133H662V1640H480Zm-430,0v133H232V1640H50Z" />
      <glyph unicode="&#xa9;" glyph-name="gid190" horiz-adv-x="1466" d="M733,168q-140,0-255.5,51t-199,143t-129,215T104,844t45.5,266.5t129,214.5t199,143T733,1519t255.5-51t199-143t129-214.5T1362,844t-45.5-267t-129-215t-199-143T733,168Zm0,68q122,0 224,47t176.5,130t115,193.5T1289,844q0,169-71,306.5t-196.5,219T733,1451q-122,0-224-47T332.5,1274t-115-193T177,844q0-169 71-307T444.5,317.5T733,236Zm3,157q-104,0-165.5,55T509,624v412q0,130 53.5,196.5T740,1299q101,0 154-53t53-149V961H850v83q0,86-24,123.5T734,1205q-73,0-95.5-40T616,1057V629q0-70 26-109.5T734,480q68,0 92,35t24,114V741H951V627q0-112-46.5-173T736,393Z" />
      <glyph unicode="&#xaa;" glyph-name="gid127" horiz-adv-x="765" d="M362,553q-96,0-143.5,81T171,866v153q0,64 27,109t74.5,79T384,1270t137,61v92q0,93-5.5,148.5t-27,80.5T417,1677q-76,0-94-63t-18-210v-30H185v33q0,72 5.5,139.5t26.5,121t68,84.5t131,31q114,0 160.5-50.5t55.5-148t9-237.5V563H521v92q-8-25-46.5-63.5T362,553Zm22,100q47,0 85,27.5T521,732v505q-99-44-149-74.5t-66.5-71T289,973V876q0-121 18.5-172T384,653Z" />
      <glyph unicode="&#xab;" glyph-name="gid180" horiz-adv-x="1304" d="M1065,414L599,699v95l466,271V915L753,749l312-175V414Zm-523,0L76,699v95l466,271V915L230,749L542,574V414Z" />
      <glyph unicode="&#xac;" glyph-name="gid211" horiz-adv-x="947" d="M701,439V743H97V858H826V439H701Z" />
      <glyph unicode="&#xad;" glyph-name="gid164" horiz-adv-x="696" d="M90,626V741H606V626H90Z" />
      <glyph unicode="&#xae;" glyph-name="gid191" horiz-adv-x="1502" d="M527,446v852H740q105,0 171.5-45T978,1092v-17q0-69-33-108.5T858,910q40-7 74.5-38.5T967,787V446H849V748q0,70-25.5,93t-71,23T647,864V446H527ZM648,951h78q64,0 100.5,32t36.5,93q0,83-43.5,108.5T648,1210V951Zm85-680q122,0 227,45.5T1143.5,443t122,188.5T1309,862q0,165-76,299t-206.5,213T733,1453q-122,0-227-45.5T322.5,1281t-122-188.5T157,862q0-164 76-298.5T439.5,350T733,271Zm0-66q-140,0-259.5,49.5t-209,139t-139,209T76,862t49.5,259.5t139,209t209,139T733,1519t259.5-49.5t209-139t139-209T1390,862t-49.5-259.5t-139-209t-209-139T733,205Z" />
      <glyph unicode="&#xaf;" glyph-name="gid233" horiz-adv-x="616" d="M50,1640v115H566V1640H50Z" />
      <glyph unicode="&#xb0;" glyph-name="gid193" horiz-adv-x="863" d="M431,1114q-86,0-164.5,37T138,1262.5T88,1448q0,112 50,186t129,111.5T431,1783q86,0 165-37.5T725,1634t50-186q0-111-50-185.5T596,1151t-165-37Zm1,87q58,0 111,27t86.5,82T663,1448q0,84-34,138.5T542.5,1668T432,1695t-111-27t-86.5-81.5T201,1449q0-84 34-139t87-82t110-27Z" />
      <glyph unicode="&#xb1;" glyph-name="gid209" horiz-adv-x="854" d="M368,554V820H138V926H368v259H486V926H720V820H486V554H368ZM173,259V377H689V259H173Z" />
      <glyph unicode="&#xb2;" glyph-name="gid140" horiz-adv-x="861" d="M264,420v72q0,20 18.5,75.5t47.5,130T391,850t60,144.5t44,106t12,34.5q23,49 38,133.5T560,1422q0,112-12,167t-32,73.5T471,1681t-47-18.5t-35.5-76T375,1410V1232H259l1,82q0,145 11,248.5T329.5,1722T488,1778q62,0 98.5-33.5t54.5-89t23.5-121T670,1406q0-108-27-199t-67.5-174t-83-165.5T417.5,695T375,498H651V420H264Z" />
      <glyph unicode="&#xb3;" glyph-name="gid141" horiz-adv-x="880" d="M438,542q-113,0-159,83.5T233,880v29H333V879q0-148 18.5-200.5T438,626q67,0 91,56t24,196q0,155-34,208.5T410,1140H379v87h29q50,0 81,14.5t46,65T550,1462q0,99-15.5,147.5t-41,64T436,1689q-29,0-51.5-17.5t-35-67T337,1459v-22H237v23q0,155 44,235t157,80t162-80t49-235q0-103-27-178.5T530,1181q63-28 92-117t29-188q0-170-51-252T438,542Z" />
      <glyph unicode="&#xb4;" glyph-name="gid229" horiz-adv-x="354" d="M50,1640l94,332H304L119,1640H50Z" />
      <glyph unicode="&#xb5;" glyph-name="gid213" horiz-adv-x="914" d="M385-20Q338-20 282.5,6.5t-95,93T148,285V1500H297V292q0-88 40-130.5T444,119q79,0 123.5,49.5T612,303l-2,1197H761V0H612V150Q594,86 533,33T385-20ZM148,483H297V-265H148V483Z" />
      <glyph unicode="&#xb6;" glyph-name="gid188" horiz-adv-x="989" d="M430,0V1180q-154,17-230.5,98T123,1454q0,59 15.5,114t62,98.5T338,1735t242,25H823V0H703V1620H550V0H430Z" />
      <glyph unicode="&#xb7;" glyph-name="gid157" horiz-adv-x="480" d="M163,786V961H333V786H163Z" />
      <glyph unicode="&#xb8;" glyph-name="gid234" horiz-adv-x="456" d="M137-596q-40,0-87,9v86q95,0 144.5,20t68,52.5T281-359q0,68-49,109T121-196L161,0h57l9-147q96-48 137.5-109T406-376q0-58-34.5-108T276-565T137-596Z" />
      <glyph unicode="&#xb9;" glyph-name="gid139" horiz-adv-x="626" d="M266,414V1585q-25-34-73.5-51T103,1517v74q40,6 78.5,26.5t71.5,56t56,86.5h68V414H266Z" />
      <glyph unicode="&#xba;" glyph-name="gid128" horiz-adv-x="908" d="M477,527q-111,0-161.5,55T252,733.5T239,954v404q0,114 14.5,205T319,1707t158,53t156.5-53t63-144T710,1358V954q0-122-11.5-219T638,582.5T477,527Zm0,104q76,0 94.5,78T590,913v474q0,119-19,192.5T477,1653q-81,0-100-73.5T358,1387V913q0-127 18.5-204.5T477,631Z" />
      <glyph unicode="&#xbb;" glyph-name="gid181" horiz-adv-x="1304" d="M716,414V574l312,175L716,915v150l466-271V699L716,414Zm-523,0V574L505,749L193,915v150L659,794V699L193,414Z" />
      <glyph unicode="&#xbc;" glyph-name="gid144" horiz-adv-x="1535" d="M489,0L948,1783h120L607,0H489ZM267,424V1605q-26-34-75-51t-92-17v75q41,7 81,27.5t74,56.5t57,87h71V424H267ZM1190,0V244H916l-5,70l278,910h95V326h109V244H1284V0h-94ZM1007,326h183V989L1007,326Z" />
      <glyph unicode="&#xbd;" glyph-name="gid143" horiz-adv-x="1620" d="M489,0L948,1783h120L607,0H489ZM267,424V1605q-26-34-75-51t-92-17v75q41,7 81,27.5t74,56.5t57,87h71V424H267ZM1131,0V74q0,54 18,125.5T1210,365l167,359q32,68 43,143.5t11,145.5q0,112-12,167.5t-32.5,74T1341,1273t-47.5-18.5t-36-76.5T1244,1001V821H1127v83q0,146 11,251t59.5,161t160.5,56q84,0 123-52.5t50.5-137.5T1543,997q0-93-17.5-171T1470,669L1305,315q-42-88-52-152.5T1243,98h280V0H1131Z" />
      <glyph unicode="&#xbe;" glyph-name="gid145" horiz-adv-x="1555" d="M568,0l459,1783h120L686,0H568ZM358,551q-117,0-164,84.5T147,893v31H252V893q0-149 19-202t88-53q68,0 92,56.5T475,892q0,156-34.5,210.5T329,1157H298v87h31q51,0 82.5,15.5T458,1326t15,156q0,99-15.5,148t-42,65T357,1711q-30,0-53-18t-35.5-67.5T256,1480v-23H151v24q0,157 45.5,238T359,1800t168-80.5T578,1481q0-105-28-181t-94-101q65-29 94.5-118.5T580,890q0-172-53-255.5T358,551ZM1269,0V244H995l-5,70l278,910h95V326h109V244H1363V0h-94ZM1086,326h183V989L1086,326Z" />
      <glyph unicode="&#xbf;" glyph-name="gid156" horiz-adv-x="708" d="M521,1008V692q-93-34-146.5-78t-78-107T265,353t-7-220q0-157 17.5-224.5T353-159q65,0 85.5,60T459,127V342H591V137q0-54 0.5-125.5t-16-138T509-237T357-281q-90,0-138,34t-67.5,97T129-1.5T126,188q0,173 24,287.5t82.5,181T396,752v256H521Zm1,494V1203H396v299H522Z" />
      <glyph unicode="&#xc0;" glyph-name="gid6" horiz-adv-x="818" d="M35,0L318,1760H470L783,0H639L581,362H229L176,0H35ZM248,473H561L399,1476h-2L248,473ZM386,1900L201,2232H361l94-332H386Z" />
      <glyph unicode="&#xc1;" glyph-name="gid2" horiz-adv-x="818" d="M35,0L318,1760H470L783,0H639L581,362H229L176,0H35ZM248,473H561L399,1476h-2L248,473Zm63,1427l94,332H565L380,1900H311Z" />
      <glyph unicode="&#xc2;" glyph-name="gid4" horiz-adv-x="818" d="M35,0L318,1760H470L783,0H639L581,362H229L176,0H35ZM248,473H561L399,1476h-2L248,473ZM194,1900l121,254H481l120-254H484l-86,175l-86-175H194Z" />
      <glyph unicode="&#xc3;" glyph-name="gid8" horiz-adv-x="818" d="M35,0L318,1760H470L783,0H639L581,362H229L176,0H35ZM248,473H561L399,1476h-2L248,473ZM539,1900q-44,0-89.5,20.5t-90,41T273,1982q-16,0-23-2q-16-4-26.5-18.5T199,1921l-93,46q20,68 47,95.5t58,32.5t63,5q41,0 89.5-18t92-36t68.5-18h4q14,2 27,14.5t29,57.5l105-29l-9-26q-31-97-62-121t-79-24Z" />
      <glyph unicode="&#xc4;" glyph-name="gid5" horiz-adv-x="818" d="M35,0L318,1760H470L783,0H639L581,362H229L176,0H35ZM248,473H561L399,1476h-2L248,473ZM522,1900v133H704V1900H522Zm-430,0v133H274V1900H92Z" />
      <glyph unicode="&#xc5;" glyph-name="gid7" horiz-adv-x="818" d="M35,0L318,1760H470L783,0H639L581,362H229L176,0H35ZM248,473H561L399,1476h-2L248,473ZM398,1900q-85,0-127,48.5T229,2052q0,56 42,105t127,49q86,0 127.5-49T567,2052q0-55-41.5-103.5T398,1900Zm0,51q50,0 75,32t25,70t-25,70t-75,32q-48,0-72.5-32T301,2053t24.5-70t72.5-32Z" />
      <glyph unicode="&#xc6;" glyph-name="gid9" horiz-adv-x="1074" d="M43,0L433,1760H989V1644H684V956H970V836H684V118H986V0H551V370H259L183,0H43ZM288,483H551V1646l-18-1L288,483Z" />
      <glyph unicode="&#xc7;" glyph-name="gid12" horiz-adv-x="868" d="M448-20Q319-20 251.5,45.5T160,238T136,550v701q0,112 11,209t43,169.5t95.5,113T454,1783q107,0 167.5-41.5t88-115.5T744,1453t7-214V1087H600v170q0,196-25,298.5T453,1658q-100,0-134-101.5T285,1258V552q0-162 12-261t47-144t103-45q98,0 125.5,103.5T600,551V692H750V552q0-184-22-312T641,46T448-20ZM383-596q-40,0-87,9v86q95,0 144.5,20t68,52.5T527-359q0,68-49,109T367-196L407,0h57l9-147q96-48 137.5-109T652-376q0-58-34.5-108T522-565T383-596Z" />
      <glyph unicode="&#xc8;" glyph-name="gid19" horiz-adv-x="716" d="M166,0V1760H631V1644H315V956H612V835H315V118H628V0H166ZM386,1900L201,2232H361l94-332H386Z" />
      <glyph unicode="&#xc9;" glyph-name="gid16" horiz-adv-x="716" d="M166,0V1760H631V1644H315V956H612V835H315V118H628V0H166ZM311,1900l94,332H565L380,1900H311Z" />
      <glyph unicode="&#xca;" glyph-name="gid17" horiz-adv-x="716" d="M166,0V1760H631V1644H315V956H612V835H315V118H628V0H166Zm28,1900l121,254H481l120-254H484l-86,175l-86-175H194Z" />
      <glyph unicode="&#xcb;" glyph-name="gid18" horiz-adv-x="716" d="M166,0V1760H631V1644H315V956H612V835H315V118H628V0H166ZM522,1900v133H704V1900H522Zm-430,0v133H274V1900H92Z" />
      <glyph unicode="&#xcc;" glyph-name="gid27" horiz-adv-x="485" d="M168,0V1760H317V0H168Zm63,1900L46,2232H206l94-332H231Z" />
      <glyph unicode="&#xcd;" glyph-name="gid24" horiz-adv-x="485" d="M168,0V1760H317V0H168ZM156,1900l94,332H410L225,1900H156Z" />
      <glyph unicode="&#xce;" glyph-name="gid25" horiz-adv-x="485" d="M168,0V1760H317V0H168ZM39,1900l121,254H326l120-254H329l-86,175l-86-175H39Z" />
      <glyph unicode="&#xcf;" glyph-name="gid26" horiz-adv-x="485" d="M168,0V1760H317V0H168ZM367,1900v133H549V1900H367Zm-430,0v133H119V1900H-63Z" />
      <glyph unicode="&#xd0;" glyph-name="gid14" horiz-adv-x="914" d="M166,0V1760H437q143,0 216-61.5T752,1524t26-266V504q0-183-33.5-293.5T635,50T431,0H166ZM314,128H437q65,0 107.5,30T608,272.5T629,519v755q0,195-45,278.5T446,1636H314V128ZM33,839v81H500V839H33Z" />
      <glyph unicode="&#xd1;" glyph-name="gid34" horiz-adv-x="983" d="M166,0V1760H270L702,399l-15,606v755H817V0H701L296,1326l10-476V0H166ZM633,1900q-44,0-89.5,20.5t-90,41T367,1982q-16,0-23-2q-16-4-26.5-18.5T293,1921l-93,46q20,68 47,95.5t58,32.5t63,5q41,0 89.5-18t92-36t68.5-18h4q14,2 27,14.5t29,57.5l105-29l-9-26q-31-97-62-121t-79-24Z" />
      <glyph unicode="&#xd2;" glyph-name="gid39" horiz-adv-x="891" d="M447-20Q320-20 252.5,38t-92,177.5T136,519v749q0,152 21,268t88.5,181.5T454,1783q106,0 167-37.5T710.5,1639T747,1476t8-208V519q0-184-24-303.5T641,38T447-20Zm0,122q64,0 98.5,37T593,267t13,252v761q0,199-28.5,288.5T454,1658q-100,0-134.5-90T285,1281V519q0-161 13-252t48-128t101-37ZM434,1900L249,2232H409l94-332H434Z" />
      <glyph unicode="&#xd3;" glyph-name="gid36" horiz-adv-x="891" d="M447-20Q320-20 252.5,38t-92,177.5T136,519v749q0,152 21,268t88.5,181.5T454,1783q106,0 167-37.5T710.5,1639T747,1476t8-208V519q0-184-24-303.5T641,38T447-20Zm0,122q64,0 98.5,37T593,267t13,252v761q0,199-28.5,288.5T454,1658q-100,0-134.5-90T285,1281V519q0-161 13-252t48-128t101-37ZM359,1900l94,332H613L428,1900H359Z" />
      <glyph unicode="&#xd4;" glyph-name="gid37" horiz-adv-x="891" d="M447-20Q320-20 252.5,38t-92,177.5T136,519v749q0,152 21,268t88.5,181.5T454,1783q106,0 167-37.5T710.5,1639T747,1476t8-208V519q0-184-24-303.5T641,38T447-20Zm0,122q64,0 98.5,37T593,267t13,252v761q0,199-28.5,288.5T454,1658q-100,0-134.5-90T285,1281V519q0-161 13-252t48-128t101-37ZM242,1900l121,254H529l120-254H532l-86,175l-86-175H242Z" />
      <glyph unicode="&#xd5;" glyph-name="gid41" horiz-adv-x="891" d="M447-20Q320-20 252.5,38t-92,177.5T136,519v749q0,152 21,268t88.5,181.5T454,1783q106,0 167-37.5T710.5,1639T747,1476t8-208V519q0-184-24-303.5T641,38T447-20Zm0,122q64,0 98.5,37T593,267t13,252v761q0,199-28.5,288.5T454,1658q-100,0-134.5-90T285,1281V519q0-161 13-252t48-128t101-37ZM587,1900q-44,0-89.5,20.5t-90,41T321,1982q-16,0-23-2q-16-4-26.5-18.5T247,1921l-93,46q20,68 47,95.5t58,32.5t63,5q41,0 89.5-18t92-36t68.5-18h4q14,2 27,14.5t29,57.5l105-29l-9-26q-31-97-62-121t-79-24Z" />
      <glyph unicode="&#xd6;" glyph-name="gid38" horiz-adv-x="891" d="M447-20Q320-20 252.5,38t-92,177.5T136,519v749q0,152 21,268t88.5,181.5T454,1783q106,0 167-37.5T710.5,1639T747,1476t8-208V519q0-184-24-303.5T641,38T447-20Zm0,122q64,0 98.5,37T593,267t13,252v761q0,199-28.5,288.5T454,1658q-100,0-134.5-90T285,1281V519q0-161 13-252t48-128t101-37ZM570,1900v133H752V1900H570Zm-430,0v133H322V1900H140Z" />
      <glyph unicode="&#xd7;" glyph-name="gid204" horiz-adv-x="710" d="M168,394L84,478L272,665L84,852l84,84L355,748L542,936l84-84L438,665L626,478l-84-84L355,582L168,394Z" />
      <glyph unicode="&#xd8;" glyph-name="gid40" horiz-adv-x="891" d="M256-225l-59,19L666,1956l67-15L256-225ZM447-20Q320-20 252.5,38t-92,177.5T136,519v749q0,152 21,268t88.5,181.5T454,1783q106,0 167-37.5T710.5,1639T747,1476t8-208V519q0-184-24-303.5T641,38T447-20Zm0,122q64,0 98.5,37T593,267t13,252v761q0,199-28.5,288.5T454,1658q-100,0-134.5-90T285,1281V519q0-161 13-252t48-128t101-37Z" />
      <glyph unicode="&#xd9;" glyph-name="gid53" horiz-adv-x="915" d="M459-20Q335-20 267.5,31.5T174,187.5T148,452V1760H297V457q0-114 8-193.5T347.5,143T460,102q79,0 112,41t39.5,120T618,456V1760H767V452q0-160-25-264.5t-91.5-156T459-20ZM446,1900L261,2232H421l94-332H446Z" />
      <glyph unicode="&#xda;" glyph-name="gid50" horiz-adv-x="915" d="M459-20Q335-20 267.5,31.5T174,187.5T148,452V1760H297V457q0-114 8-193.5T347.5,143T460,102q79,0 112,41t39.5,120T618,456V1760H767V452q0-160-25-264.5t-91.5-156T459-20ZM371,1900l94,332H625L440,1900H371Z" />
      <glyph unicode="&#xdb;" glyph-name="gid51" horiz-adv-x="915" d="M459-20Q335-20 267.5,31.5T174,187.5T148,452V1760H297V457q0-114 8-193.5T347.5,143T460,102q79,0 112,41t39.5,120T618,456V1760H767V452q0-160-25-264.5t-91.5-156T459-20ZM254,1900l121,254H541l120-254H544l-86,175l-86-175H254Z" />
      <glyph unicode="&#xdc;" glyph-name="gid52" horiz-adv-x="915" d="M459-20Q335-20 267.5,31.5T174,187.5T148,452V1760H297V457q0-114 8-193.5T347.5,143T460,102q79,0 112,41t39.5,120T618,456V1760H767V452q0-160-25-264.5t-91.5-156T459-20ZM582,1900v133H764V1900H582Zm-430,0v133H334V1900H152Z" />
      <glyph unicode="&#xdd;" glyph-name="gid58" horiz-adv-x="786" d="M334,0V772L16,1760H166L407,982h3l206,778H770L483,773V0H334ZM306,1900l94,332H560L375,1900H306Z" />
      <glyph unicode="&#xde;" glyph-name="gid44" horiz-adv-x="865" d="M166,0V1760H315V1535H472q106,0 167.5-37t91-105t38-161t8.5-205v-20q0-183-25.5-302.5t-93-178T463,468H315V0H166ZM315,594H474q62,0 95.5,37.5T616,759t13,247v36q0,192-28,280.5T480,1411H315V594Z" />
      <glyph unicode="&#xdf;" glyph-name="gid108" horiz-adv-x="933" d="M157,0V1417q0,91 6,159.5T194.5,1691t84.5,69t165,23q134,0 205.5-32.5t98.5-112T775,1417V1220q0-86-15-139t-51.5-83.5T606,945q88-21 138-62t70.5-119T835,553V476q0-112-7.5-200.5T791,125.5T698.5,32T522,0H418V100q121,0 178,24t74,87.5T687,395V656q0,124-54.5,178.5T427,889V997q113,0 159,38.5T632,1170v330q0,110-36.5,148.5T457,1687q-85,0-119-38.5T304,1500V0H157Z" />
      <glyph unicode="&#xe0;" glyph-name="gid64" horiz-adv-x="844" d="M366-11Q247-11 187,89.5T127,377V569q0,80 33.5,136t93,98t139,78T563,956v102q0,115-6,187.5t-33,107T433,1387q-62,0-91.5-33.5t-38-108T295,1048v-37H145v40q0,90 6.5,174t33,150t85,104.5T433,1518q106,0 163.5-35t82-104t29-170T712,976V0H563V112q-6-18-29-47.5T469.5,12T366-11Zm27,124q59,0 106,33.5T563,211V837q-93-42-150.5-72t-87-61.5t-40-77T275,509V390q0-150 23-213.5T393,113Zm17,1527L225,1972H385l94-332H410Z" />
      <glyph unicode="&#xe1;" glyph-name="gid61" horiz-adv-x="844" d="M366-11Q247-11 187,89.5T127,377V569q0,80 33.5,136t93,98t139,78T563,956v102q0,115-6,187.5t-33,107T433,1387q-62,0-91.5-33.5t-38-108T295,1048v-37H145v40q0,90 6.5,174t33,150t85,104.5T433,1518q106,0 163.5-35t82-104t29-170T712,976V0H563V112q-6-18-29-47.5T469.5,12T366-11Zm27,124q59,0 106,33.5T563,211V837q-93-42-150.5-72t-87-61.5t-40-77T275,509V390q0-150 23-213.5T393,113ZM335,1640l94,332H589L404,1640H335Z" />
      <glyph unicode="&#xe2;" glyph-name="gid62" horiz-adv-x="844" d="M366-11Q247-11 187,89.5T127,377V569q0,80 33.5,136t93,98t139,78T563,956v102q0,115-6,187.5t-33,107T433,1387q-62,0-91.5-33.5t-38-108T295,1048v-37H145v40q0,90 6.5,174t33,150t85,104.5T433,1518q106,0 163.5-35t82-104t29-170T712,976V0H563V112q-6-18-29-47.5T469.5,12T366-11Zm27,124q59,0 106,33.5T563,211V837q-93-42-150.5-72t-87-61.5t-40-77T275,509V390q0-150 23-213.5T393,113ZM218,1640l121,254H505l120-254H508l-86,175l-86-175H218Z" />
      <glyph unicode="&#xe3;" glyph-name="gid66" horiz-adv-x="844" d="M366-11Q247-11 187,89.5T127,377V569q0,80 33.5,136t93,98t139,78T563,956v102q0,115-6,187.5t-33,107T433,1387q-62,0-91.5-33.5t-38-108T295,1048v-37H145v40q0,90 6.5,174t33,150t85,104.5T433,1518q106,0 163.5-35t82-104t29-170T712,976V0H563V112q-6-18-29-47.5T469.5,12T366-11Zm27,124q59,0 106,33.5T563,211V837q-93-42-150.5-72t-87-61.5t-40-77T275,509V390q0-150 23-213.5T393,113ZM563,1640q-44,0-89.5,20.5t-90,41T297,1722q-16,0-23-2q-16-4-26.5-18.5T223,1661l-93,46q20,68 47,95.5t58,32.5t63,5q41,0 89.5-18t92-36t68.5-18h4q14,2 27,14.5t29,57.5l105-29l-9-26q-31-97-62-121t-79-24Z" />
      <glyph unicode="&#xe4;" glyph-name="gid63" horiz-adv-x="844" d="M366-11Q247-11 187,89.5T127,377V569q0,80 33.5,136t93,98t139,78T563,956v102q0,115-6,187.5t-33,107T433,1387q-62,0-91.5-33.5t-38-108T295,1048v-37H145v40q0,90 6.5,174t33,150t85,104.5T433,1518q106,0 163.5-35t82-104t29-170T712,976V0H563V112q-6-18-29-47.5T469.5,12T366-11Zm27,124q59,0 106,33.5T563,211V837q-93-42-150.5-72t-87-61.5t-40-77T275,509V390q0-150 23-213.5T393,113ZM546,1640v133H728V1640H546Zm-430,0v133H298V1640H116Z" />
      <glyph unicode="&#xe5;" glyph-name="gid65" horiz-adv-x="844" d="M366-11Q247-11 187,89.5T127,377V569q0,80 33.5,136t93,98t139,78T563,956v102q0,115-6,187.5t-33,107T433,1387q-62,0-91.5-33.5t-38-108T295,1048v-37H145v40q0,90 6.5,174t33,150t85,104.5T433,1518q106,0 163.5-35t82-104t29-170T712,976V0H563V112q-6-18-29-47.5T469.5,12T366-11Zm27,124q59,0 106,33.5T563,211V837q-93-42-150.5-72t-87-61.5t-40-77T275,509V390q0-150 23-213.5T393,113Zm29,1527q-85,0-127,48.5T253,1792q0,56 42,105t127,49q86,0 127.5-49T591,1792q0-55-41.5-103.5T422,1640Zm0,51q50,0 75,32t25,70t-25,70t-75,32q-48,0-72.5-32T325,1793t24.5-70t72.5-32Z" />
      <glyph unicode="&#xe6;" glyph-name="gid67" horiz-adv-x="1236" d="M851-18q-95,0-152,31t-90,90q-23-22-65.5-49t-92-46T355-11Q237-11 182,89.5T127,375V566q0,81 34,137.5t94,98t140,78T566,956v109q0,116-7,187t-34.5,103.5T433,1388q-63,0-92-34.5T303.5,1244T295,1047v-36H145v40q0,90 6.5,174t33,150t85,104.5T433,1518q87,0 135-23t70-68q35,44 89,67.5T860,1518q101,0 156.5-39.5t80-110t30-164T1132,1002V754H712V443q0-111 8-184.5T758,149t96-36q61,0 88,38t34,111t7,177V556h145V505q0-114-5-209.5t-29.5-166T1012,20.5T851-18ZM393,112q59,0 107.5,34T566,211V840q-93-42-150.5-72.5t-88-62.5T286,628T275,511V390q0-151 23-214.5T393,112ZM712,874H983v194q0,103-4.5,174t-30,108T860,1387q-65,0-96.5-40.5T722,1233t-10-170V874Z" />
      <glyph unicode="&#xe7;" glyph-name="gid70" horiz-adv-x="803" d="M418-18Q316-18 257,21T170.5,131t-35,167.5T128,511v517q0,136 19.5,247t83,177T425,1518q102,0 158.5-36t81-102.5t30-158T700,1020V973H549v92q0,105-5,175t-30.5,105.5T426,1381q-67,0-98.5-40t-41-112.5T277,1057V455q0-116 8-190.5t38-110T419,119q63,0 90,39t33.5,112.5T549,449V562H700V517q0-117-5-215T665.5,132.5T583,21.5T418-18ZM351-596q-40,0-87,9v86q95,0 144.5,20t68,52.5T495-359q0,68-49,109T335-196L375,0h57l9-147q96-48 137.5-109T620-376q0-58-34.5-108T490-565T351-596Z" />
      <glyph unicode="&#xe8;" glyph-name="gid77" horiz-adv-x="802" d="M421-18Q318-18 258.5,20.5T171,130T135.5,298T128,511v503q0,106 9,197.5T175.5,1372t89,107.5T425,1518t157-39.5t80.5-110t30-164T698,1002V752H277V450q0-172 22.5-254.5T419,113q62,0 89,39.5T542,266t7,178V556H694V507q0-114-4.5-209.5T661,131T580.5,21T421-18ZM277,877H549v191q0,103-4.5,174t-30,108T426,1387q-65,0-97-40.5t-42-114T277,1060V877Zm112,763L204,1972H364l94-332H389Z" />
      <glyph unicode="&#xe9;" glyph-name="gid74" horiz-adv-x="802" d="M421-18Q318-18 258.5,20.5T171,130T135.5,298T128,511v503q0,106 9,197.5T175.5,1372t89,107.5T425,1518t157-39.5t80.5-110t30-164T698,1002V752H277V450q0-172 22.5-254.5T419,113q62,0 89,39.5T542,266t7,178V556H694V507q0-114-4.5-209.5T661,131T580.5,21T421-18ZM277,877H549v191q0,103-4.5,174t-30,108T426,1387q-65,0-97-40.5t-42-114T277,1060V877Zm37,763l94,332H568L383,1640H314Z" />
      <glyph unicode="&#xea;" glyph-name="gid75" horiz-adv-x="802" d="M421-18Q318-18 258.5,20.5T171,130T135.5,298T128,511v503q0,106 9,197.5T175.5,1372t89,107.5T425,1518t157-39.5t80.5-110t30-164T698,1002V752H277V450q0-172 22.5-254.5T419,113q62,0 89,39.5T542,266t7,178V556H694V507q0-114-4.5-209.5T661,131T580.5,21T421-18ZM277,877H549v191q0,103-4.5,174t-30,108T426,1387q-65,0-97-40.5t-42-114T277,1060V877Zm-80,763l121,254H484l120-254H487l-86,175l-86-175H197Z" />
      <glyph unicode="&#xeb;" glyph-name="gid76" horiz-adv-x="802" d="M421-18Q318-18 258.5,20.5T171,130T135.5,298T128,511v503q0,106 9,197.5T175.5,1372t89,107.5T425,1518t157-39.5t80.5-110t30-164T698,1002V752H277V450q0-172 22.5-254.5T419,113q62,0 89,39.5T542,266t7,178V556H694V507q0-114-4.5-209.5T661,131T580.5,21T421-18ZM277,877H549v191q0,103-4.5,174t-30,108T426,1387q-65,0-97-40.5t-42-114T277,1060V877Zm248,763v133H707V1640H525Zm-430,0v133H277V1640H95Z" />
      <glyph unicode="&#xec;" glyph-name="gid86" horiz-adv-x="474" d="M162,0V1500H312V0H162Zm63,1640L40,1972H200l94-332H225Z" />
      <glyph unicode="&#xed;" glyph-name="gid83" horiz-adv-x="474" d="M162,0V1500H312V0H162ZM150,1640l94,332H404L219,1640H150Z" />
      <glyph unicode="&#xee;" glyph-name="gid84" horiz-adv-x="474" d="M162,0V1500H312V0H162ZM33,1640l121,254H320l120-254H323l-86,175l-86-175H33Z" />
      <glyph unicode="&#xef;" glyph-name="gid85" horiz-adv-x="474" d="M162,0V1500H312V0H162ZM361,1640v133H543V1640H361Zm-430,0v133H113V1640H-69Z" />
      <glyph unicode="&#xf0;" glyph-name="gid72" horiz-adv-x="910" d="M431-20Q304-20 234.5,33.5T138,190.5T111,442V557q0,201 28,323t98,175.5T433,1103q44-1 97.5-24.5T616,1009q0,0-1,39t-2.5,98t-4,120.5t-5.5,108t-7,59.5L371,1299l-53,100l225,135q-54,64-123.5,86.5T293,1640v140q118,2 218-37.5T678,1616l200,119l53-100L732,1516q6-18 11-69.5t9-120.5t6.5-141t3.5-132.5t1-94.5V506q0-147-26-266T639.5,50.5T431-20Zm0,127q113,0 148,95t35,303V926q-14,3-66,27.5T425,978q-68,0-103.5-40.5T273,802T260,545V446q0-138 15-211.5T327,134t104-27Z" />
      <glyph unicode="&#xf1;" glyph-name="gid94" horiz-adv-x="920" d="M160,0V1500H309V1353q20,64 87,115t155,51q97,0 159-73.5T772,1211V0H623V1223q0,92-42.5,128T478,1387q-41,0-80-14t-64-50t-25-103V0H160ZM601,1640q-44,0-89.5,20.5t-90,41T335,1722q-16,0-23-2q-16-4-26.5-18.5T261,1661l-93,46q20,68 47,95.5t58,32.5t63,5q41,0 89.5-18t92-36t68.5-18h4q14,2 27,14.5t29,57.5l105-29l-9-26q-31-97-62-121t-79-24Z" />
      <glyph unicode="&#xf2;" glyph-name="gid99" horiz-adv-x="845" d="M426-18Q322-18 262,21T173,131.5t-37,169T128,515v503q0,141 18.5,254.5t82,179.5T426,1518q101,0 160-38t87-106t36-159t8-197V515q0-115-7-212T676,134T590,22T426-18Zm0,131q62,0 92.5,44t40,122.5T568,463v590q0,99-9.5,174T519,1344.5T426,1387q-67,0-99-42.5T286,1227t-9-174V463q0-105 9.5-183.5T328,157t98-44ZM411,1640L226,1972H386l94-332H411Z" />
      <glyph unicode="&#xf3;" glyph-name="gid96" horiz-adv-x="845" d="M426-18Q322-18 262,21T173,131.5t-37,169T128,515v503q0,141 18.5,254.5t82,179.5T426,1518q101,0 160-38t87-106t36-159t8-197V515q0-115-7-212T676,134T590,22T426-18Zm0,131q62,0 92.5,44t40,122.5T568,463v590q0,99-9.5,174T519,1344.5T426,1387q-67,0-99-42.5T286,1227t-9-174V463q0-105 9.5-183.5T328,157t98-44ZM336,1640l94,332H590L405,1640H336Z" />
      <glyph unicode="&#xf4;" glyph-name="gid97" horiz-adv-x="845" d="M426-18Q322-18 262,21T173,131.5t-37,169T128,515v503q0,141 18.5,254.5t82,179.5T426,1518q101,0 160-38t87-106t36-159t8-197V515q0-115-7-212T676,134T590,22T426-18Zm0,131q62,0 92.5,44t40,122.5T568,463v590q0,99-9.5,174T519,1344.5T426,1387q-67,0-99-42.5T286,1227t-9-174V463q0-105 9.5-183.5T328,157t98-44ZM219,1640l121,254H506l120-254H509l-86,175l-86-175H219Z" />
      <glyph unicode="&#xf5;" glyph-name="gid101" horiz-adv-x="845" d="M426-18Q322-18 262,21T173,131.5t-37,169T128,515v503q0,141 18.5,254.5t82,179.5T426,1518q101,0 160-38t87-106t36-159t8-197V515q0-115-7-212T676,134T590,22T426-18Zm0,131q62,0 92.5,44t40,122.5T568,463v590q0,99-9.5,174T519,1344.5T426,1387q-67,0-99-42.5T286,1227t-9-174V463q0-105 9.5-183.5T328,157t98-44ZM564,1640q-44,0-89.5,20.5t-90,41T298,1722q-16,0-23-2q-16-4-26.5-18.5T224,1661l-93,46q20,68 47,95.5t58,32.5t63,5q41,0 89.5-18t92-36t68.5-18h4q14,2 27,14.5t29,57.5l105-29l-9-26q-31-97-62-121t-79-24Z" />
      <glyph unicode="&#xf6;" glyph-name="gid98" horiz-adv-x="845" d="M426-18Q322-18 262,21T173,131.5t-37,169T128,515v503q0,141 18.5,254.5t82,179.5T426,1518q101,0 160-38t87-106t36-159t8-197V515q0-115-7-212T676,134T590,22T426-18Zm0,131q62,0 92.5,44t40,122.5T568,463v590q0,99-9.5,174T519,1344.5T426,1387q-67,0-99-42.5T286,1227t-9-174V463q0-105 9.5-183.5T328,157t98-44ZM547,1640v133H729V1640H547Zm-430,0v133H299V1640H117Z" />
      <glyph unicode="&#xf7;" glyph-name="gid205" horiz-adv-x="804" d="M94,708V823H710V708H94ZM343,327V535H471V327H343Zm0,649v198H471V976H343Z" />
      <glyph unicode="&#xf8;" glyph-name="gid100" horiz-adv-x="845" d="M284-223l-61,8L561,1746l61-8L284-223ZM426-18Q322-18 262,21T173,131.5t-37,169T128,515v503q0,141 18.5,254.5t82,179.5T426,1518q101,0 160-38t87-106t36-159t8-197V515q0-115-7-212T676,134T590,22T426-18Zm0,131q62,0 92.5,44t40,122.5T568,463v590q0,99-9.5,174T519,1344.5T426,1387q-67,0-99-42.5T286,1227t-9-174V463q0-105 9.5-183.5T328,157t98-44Z" />
      <glyph unicode="&#xf9;" glyph-name="gid114" horiz-adv-x="914" d="M385-20Q338-20 282.5,6.5t-95,93T148,285V1500H297V292q0-88 40-130.5T444,119q79,0 123.5,49.5T612,303l-2,1197H761V0H612V150Q594,86 533,33T385-20Zm60,1660L260,1972H420l94-332H445Z" />
      <glyph unicode="&#xfa;" glyph-name="gid111" horiz-adv-x="914" d="M385-20Q338-20 282.5,6.5t-95,93T148,285V1500H297V292q0-88 40-130.5T444,119q79,0 123.5,49.5T612,303l-2,1197H761V0H612V150Q594,86 533,33T385-20ZM370,1640l94,332H624L439,1640H370Z" />
      <glyph unicode="&#xfb;" glyph-name="gid112" horiz-adv-x="914" d="M385-20Q338-20 282.5,6.5t-95,93T148,285V1500H297V292q0-88 40-130.5T444,119q79,0 123.5,49.5T612,303l-2,1197H761V0H612V150Q594,86 533,33T385-20ZM253,1640l121,254H540l120-254H543l-86,175l-86-175H253Z" />
      <glyph unicode="&#xfc;" glyph-name="gid113" horiz-adv-x="914" d="M385-20Q338-20 282.5,6.5t-95,93T148,285V1500H297V292q0-88 40-130.5T444,119q79,0 123.5,49.5T612,303l-2,1197H761V0H612V150Q594,86 533,33T385-20ZM581,1640v133H763V1640H581Zm-430,0v133H333V1640H151Z" />
      <glyph unicode="&#xfd;" glyph-name="gid119" horiz-adv-x="745" d="M133-238v128h55q42,0 78,2.5T311-99q17,17 14,53T314,38L64,1500H214L333,707l48-408h13l43,408l107,793H693L454,3q-14-90-30-143t-53-75.5T257-238H133ZM286,1640l94,332H540L355,1640H286Z" />
      <glyph unicode="&#xfe;" glyph-name="gid104" horiz-adv-x="875" d="M160-265V1783H310V1385q31,73 86,99.5T509,1511q103,0 154-65t67.5-177.5T747,1013V475q0-140-22.5-251.5T642,48T470-16q-53,0-96.5,36.5T310,108V-265H160ZM461,106q83,1 109.5,86.5T597,468v594q0,99-7.5,172t-35,113T468,1387q-49,0-84.5-21T329,1275t-19-216V463q0-181 28.5-269T461,106Z" />
      <glyph unicode="&#xff;" glyph-name="gid120" horiz-adv-x="745" d="M133-238v128h55q42,0 78,2.5T311-99q17,17 14,53T314,38L64,1500H214L333,707l48-408h13l43,408l107,793H693L454,3q-14-90-30-143t-53-75.5T257-238H133ZM497,1640v133H679V1640H497Zm-430,0v133H249V1640H67Z" />
      <glyph unicode="&#x2013;" glyph-name="gid165" horiz-adv-x="756" d="M120,626V741H636V626H120Z" />
      <glyph unicode="&#x2014;" glyph-name="gid166" horiz-adv-x="1153" d="M100,626V741h952V626H100Z" />
      <glyph unicode="&#x2018;" glyph-name="gid178" horiz-adv-x="597" d="M167,1163v193l114,427H387l-91-418H438V1163H167Z" />
      <glyph unicode="&#x2019;" glyph-name="gid179" horiz-adv-x="597" d="M240,1163l91,417H189v203H460V1589L346,1163H240Z" />
      <glyph unicode="&#x201a;" glyph-name="gid174" horiz-adv-x="484" d="M166-437L259,0H113V207H388V9L269-437H166Z" />
      <glyph unicode="&#x201c;" glyph-name="gid176" horiz-adv-x="1030" d="M623,1149v197l119,437H845l-93-428H898V1149H623Zm-447,0v197l119,437H399l-94-428H451V1149H176Z" />
      <glyph unicode="&#x201d;" glyph-name="gid177" horiz-adv-x="1077" d="M690,1148l93,428H638v207H913V1585L793,1148H690Zm-447,0l94,428H191v207H466V1585L346,1148H243Z" />
      <glyph unicode="&#x201e;" glyph-name="gid175" horiz-adv-x="1016" d="M680-428L774,0H628V206H903V9L783-428H680Zm-447,0L327,0H181V206H456V9L336-428H233Z" />
      <glyph unicode="&#x2022;" glyph-name="gid158" horiz-adv-x="861" d="M430,633q-100,0-151.5,57.5T227,861t51.5,170.5T430,1089q101,0 152.5-57.5T634,861T582.5,690.5T430,633Z" />
      <glyph unicode="&#x2039;" glyph-name="gid182" horiz-adv-x="606" d="M548,414L82,699v95l466,271V915L236,749L548,574V414Z" />
      <glyph unicode="&#x203a;" glyph-name="gid183" horiz-adv-x="727" d="M166,414V574L478,749L166,915v150L632,794V699L166,414Z" />
    </font>
</defs>
</svg>
